(Alt. Rock / Melodic Hard Rock / Female Vocal) Orianthi - Believe - 2009, FLAC (tracks+.cue), lossless

Ответить на тему
 
Автор Сообщение

Three7 ®

Пол: Мужской

Стаж: 13 года

Сообщений: 423

Откуда: Тула

Создавать темы 10-Янв-2011 00:52

[Цитировать]

Orianthi - Believe- Жанр: Alt. Rock / Melodic Hard Rock / Female Vocal
Год выпуска: 2009
Формат: FLAC (tracks+.cue)
Битрейт аудио: lossless
Продолжительность: 00:39:42
Трэклист:
01. According To You
02. Suffocated
03. Bad News
04. Believe
05. Feels Like Home
06. Think Like A Man
07. What's It Gonna Be
08. Untogether
09. Drive Away
10. Highly Strung
11. God Only Knows
-

log EAC

Exact Audio Copy V0.99 prebeta 5 from 4. May 2009
EAC extraction logfile from 31. October 2009, 18:19
Orianthi / Believe
Used drive : HL-DT-STDVDRAM GSA-H10N Adapter: 3 ID: 1
Read mode : Secure
Utilize accurate stream : Yes
Defeat audio cache : Yes
Make use of C2 pointers : No
Read offset correction : 667
Overread into Lead-In and Lead-Out : No
Fill up missing offset samples with silence : Yes
Delete leading and trailing silent blocks : No
Null samples used in CRC calculations : Yes
Used interface : Native Win32 interface for Win NT & 2000
Gap handling : Appended to previous track
Used output format : User Defined Encoder
Selected bitrate : 768 kBit/s
Quality : High
Add ID3 tag : No
Command line compressor : C:\Program Files (x86)\FLAC\flac.exe
Additional command line options : -8 -V -T "ARTIST=%a" -T "TITLE=%t" -T "ALBUM=%g" -T "DATE=%y" -T "TRACKNUMBER=%n" -T "GENRE=%m" -T "COMMENT=EAC FLAC -8" %s
TOC of the extracted CD
Track | Start | Length | Start sector | End sector
---------------------------------------------------------
1 | 0:00.00 | 3:20.19 | 0 | 15018
2 | 3:20.19 | 3:03.42 | 15019 | 28785
3 | 6:23.61 | 3:10.05 | 28786 | 43040
4 | 9:33.66 | 3:40.10 | 43041 | 59550
5 | 13:14.01 | 4:16.30 | 59551 | 78780
6 | 17:30.31 | 3:37.00 | 78781 | 95055
7 | 21:07.31 | 2:49.13 | 95056 | 107743
8 | 23:56.44 | 3:53.38 | 107744 | 125256
9 | 27:50.07 | 4:17.12 | 125257 | 144543
10 | 32:07.19 | 4:08.05 | 144544 | 163148
11 | 36:15.24 | 3:55.31 | 163149 | 180804
Track 1
Filename E:\Music\Orianthi - Believe (2009) [FLAC]\01 - According To You.wav
Pre-gap length 0:00:02.00
Peak level 100.0 %
Track quality 99.9 %
Test CRC 2448AB70
Copy CRC 2448AB70
Track not present in AccurateRip database
Copy OK
Track 2
Filename E:\Music\Orianthi - Believe (2009) [FLAC]\02 - Suffocated.wav
Peak level 100.0 %
Track quality 100.0 %
Test CRC 9AD4FE93
Copy CRC 9AD4FE93
Track not present in AccurateRip database
Copy OK
Track 3
Filename E:\Music\Orianthi - Believe (2009) [FLAC]\03 - Bad News.wav
Peak level 100.0 %
Track quality 100.0 %
Test CRC F9AA6842
Copy CRC F9AA6842
Track not present in AccurateRip database
Copy OK
Track 4
Filename E:\Music\Orianthi - Believe (2009) [FLAC]\04 - Believe.wav
Peak level 100.0 %
Track quality 99.9 %
Test CRC 23969AE6
Copy CRC 23969AE6
Track not present in AccurateRip database
Copy OK
Track 5
Filename E:\Music\Orianthi - Believe (2009) [FLAC]\05 - Feels Like Home.wav
Peak level 100.0 %
Track quality 100.0 %
Test CRC F8CD7869
Copy CRC F8CD7869
Track not present in AccurateRip database
Copy OK
Track 6
Filename E:\Music\Orianthi - Believe (2009) [FLAC]\06 - Think Like A Man.wav
Peak level 100.0 %
Track quality 100.0 %
Test CRC 6592BC62
Copy CRC 6592BC62
Track not present in AccurateRip database
Copy OK
Track 7
Filename E:\Music\Orianthi - Believe (2009) [FLAC]\07 - What's It Going To Be.wav
Peak level 100.0 %
Track quality 100.0 %
Test CRC AC2DAB2C
Copy CRC AC2DAB2C
Track not present in AccurateRip database
Copy OK
Track 8
Filename E:\Music\Orianthi - Believe (2009) [FLAC]\08 - Untogether.wav
Peak level 100.0 %
Track quality 100.0 %
Test CRC 6689999B
Copy CRC 6689999B
Track not present in AccurateRip database
Copy OK
Track 9
Filename E:\Music\Orianthi - Believe (2009) [FLAC]\09 - Drive Away.wav
Peak level 100.0 %
Track quality 100.0 %
Test CRC F227D1DB
Copy CRC F227D1DB
Track not present in AccurateRip database
Copy OK
Track 10
Filename E:\Music\Orianthi - Believe (2009) [FLAC]\10 - Highly Strung.wav
Peak level 100.0 %
Track quality 99.9 %
Test CRC 5291489D
Copy CRC 5291489D
Track not present in AccurateRip database
Copy OK
Track 11
Filename E:\Music\Orianthi - Believe (2009) [FLAC]\11 - God Only Knows.wav
Peak level 100.0 %
Track quality 100.0 %
Test CRC ED211E02
Copy CRC ED211E02
Track not present in AccurateRip database
Copy OK
None of the tracks are present in the AccurateRip database
No errors occurred
End of status report

.cue

REM GENRE Rock
REM DATE 2009
REM DISCID 9D096A0B
REM COMMENT "ExactAudioCopy v0.99pb5"
PERFORMER "Orianthi"
TITLE "Believe"
FILE "01 - According To You.wav" WAVE
TRACK 01 AUDIO
TITLE "According To You"
PERFORMER "Orianthi"
INDEX 01 00:00:00
FILE "02 - Suffocated.wav" WAVE
TRACK 02 AUDIO
TITLE "Suffocated"
PERFORMER "Orianthi"
INDEX 01 00:00:00
FILE "03 - Bad News.wav" WAVE
TRACK 03 AUDIO
TITLE "Bad News"
PERFORMER "Orianthi"
INDEX 01 00:00:00
FILE "04 - Believe.wav" WAVE
TRACK 04 AUDIO
TITLE "Believe"
PERFORMER "Orianthi"
INDEX 01 00:00:00
FILE "05 - Feels Like Home.wav" WAVE
TRACK 05 AUDIO
TITLE "Feels Like Home"
PERFORMER "Orianthi"
INDEX 01 00:00:00
FILE "06 - Think Like A Man.wav" WAVE
TRACK 06 AUDIO
TITLE "Think Like A Man"
PERFORMER "Orianthi"
INDEX 01 00:00:00
FILE "07 - What's It Going To Be.wav" WAVE
TRACK 07 AUDIO
TITLE "What's It Going To Be"
PERFORMER "Orianthi"
INDEX 01 00:00:00
FILE "08 - Untogether.wav" WAVE
TRACK 08 AUDIO
TITLE "Untogether"
PERFORMER "Orianthi"
INDEX 01 00:00:00
FILE "09 - Drive Away.wav" WAVE
TRACK 09 AUDIO
TITLE "Drive Away"
PERFORMER "Orianthi"
INDEX 01 00:00:00
FILE "10 - Highly Strung.wav" WAVE
TRACK 10 AUDIO
TITLE "Highly Strung"
PERFORMER "Orianthi"
INDEX 01 00:00:00
FILE "11 - God Only Knows.wav" WAVE
TRACK 11 AUDIO
TITLE "God Only Knows"
PERFORMER "Orianthi"
INDEX 01 00:00:00
[Профиль] [ЛС]

Lasix

Пол: Мужской

Стаж: 2 месяца 21 день

Сообщений: 265

Откуда: Cook Islands

Создавать темы 25-Сен-2021 20:29 (спустя 10 года)

[Цитировать]

Online Propecia 1 Mg
[Профиль] [ЛС]

Zithromax

Пол: Мужской

Стаж: 2 месяца 21 день

Сообщений: 292

Откуда: Cook Islands

Создавать темы 26-Сен-2021 00:53 (спустя 4 часа)

[Цитировать]

Zentel Pills Nashville
[Профиль] [ЛС]

Prednisone

Пол: Мужской

Стаж: 2 месяца 5 дня

Сообщений: 271

Откуда: Cook Islands

Создавать темы 11-Окт-2021 06:03 (спустя 15 дня)

[Цитировать]

venta de cialis en canarias
[Профиль] [ЛС]

Ivanovwet

Пол: Мужской

Стаж: 10 месяца 1 день

Сообщений: 96

Откуда: Lebanon

Создавать темы 28-Окт-2021 01:32 (спустя 16 дня)

[Цитировать]

Source:
="» слоты игровые автоматы
="» https://100casino.online/igrovye-avtomaty.html
[Профиль] [ЛС]

Ivanovwet

Пол: Мужской

Стаж: 10 месяца 1 день

Сообщений: 96

Откуда: Lebanon

Создавать темы 13-Ноя-2021 21:40 (спустя 16 дня)

[Цитировать]

Смотрите на нашем сайте обзор детской мягкой плюшевой игрушки Пикачу Детектив. Игрушка очень похожа на героя фильма. На мордочке есть румянец, сзади зигзагообразный хвостик, а головной убор как у Шерлока Холмса.
Источник:
="» https://detja.ru/blog/obzor-na-plyushevuyu-igrushku-pikachu-detektiv/
="» детская игрушка пикачу
Ключи:
мягкая игрушка детектив пикачу
[Профиль] [ЛС]

Lorenzotousa

Пол: Мужской

Стаж: 12 дня

Сообщений: 4

Откуда: Vietnam

Создавать темы 24-Ноя-2021 04:04 (спустя 10 дня)

[Цитировать]

не я таким неувликаюсь
-----
<a href="https://xn--80aakfajgcdf8bbqzbrl1h3d.xn--p1ai/">ремонт квартира сочи</a>
Как-то не канет
-----
<a href="https://xn--80aamqddbtgmbqpf5grc.xn--p1ai/">дизайнер интерьера сочи</a>
романтика
-----
<a href="https://xn----8sbwhhnjdzg8hwa.xn--p1ai/">луковицы тюльпанов россия</a>
весна!!!
-----
<a href="https://xn----htbdjbj4afmz1a5i.xn--p1ai/">орхидея цимбидиум купить</a>
мдаааааааа
-----
<a href="https://xn--e1agageqecte1e.xn--p1ai/">проектирование электроснабжения сочи</a>
а мне нравится... классно...
-----
<a href="https://lolz.guru/threads/2761754/">https://lolz.guru/threads/2761754/</a>
Очень неплохо!
-----
<a href="https://xn--80adbhccsco0ahgdgbcre0b.xn--p1acf/">купить дом в сочи недорого</a>
Оххх буду зубрить новый талант
-----
<a href="https://opt24.store/product-category/produkty-pitaniya/zhevatelnye-konfety/">https://opt24.store/product-category/produkty-pitan...nfety/</a>
чето непонятно)
-----
<a href="https://novelit.ru/">раскрутка сайта в поисковиках</a>
ну так себе......
-----
<a href="https://smm4top.com/">buy smm</a>
[Профиль] [ЛС]
Показать сообщения:    
Ответить на тему

Текущее время: 06-Дек 09:19

Часовой пояс: UTC + 3



Вы не можете начинать темы
Вы не можете отвечать на сообщения
Вы не можете редактировать свои сообщения
Вы не можете удалять свои сообщения
Вы не можете голосовать в опросах
Вы не можете прикреплять файлы к сообщениям
Вы не можете скачивать файлы