Tila Tequila Откупорили / Tila Tequila Uncorked [2011 г., Lesbian , Celebrity Sex Tapes, DVDRip]

Ответить на тему
 
Автор Сообщение

zaichik94 ®

Пол: Не указан

Стаж: 13 года

Сообщений: 6

Откуда: Алексин, Тула

Создавать темы 04-Апр-2011 15:18

[Цитировать]

Tila Tequila Откупорили / Tila Tequila Uncorked
Год выпуска: 2011
Страна: USA
Жанр: Lesbian , Celebrity Sex Tapes
Продолжительность: 2:17:56
Перевод: Отсутствует
Субтитры: нет
Язык: Английский
Студия: Vivid
В ролях: Tila Tequila
Описание: A shot of hardcore from the star of MTV's A Shot At Love!
Love her or hate her, she's the girl you have to watch. Tila Tequila was the toast of MTV with her smash hit "Shot at Love" and has appeared in Playboy, Penthouse, Maxim, and virtually every fashion magazine in existence.
She's also one very nasty girl... and we have the tape to prove it.
This is the only Tila Tequila video.
Выстрел хардкор от звезды mtv Выстрел В Любви!
Любить ее или ненавидеть ее, что она девушка, то вы должны наблюдать. Тила Текила была тост MTV со своим хитом "Выстрел в Любви" и появилась в Playboy, Penthouse, Maxim, и практически каждый журнал мод в мире.
Она также одна очень скверная девчонка... и у нас есть ленты, чтобы доказать это.
Это только Тила Текила видео.
Качество: DVDRip
Формат: AVI
Видео кодек: XviD
Аудио кодек: MP3
Видео: XVID, Size:640x352 pixels, Frame rate:29.97fps, Bit rate:1081 Kbps [Video 0]
Аудио: MPEG Audio Layer 3, Sample rate:48000Hz, stereo, Bit rate:128 Kbps [Audio 1]

Отчёт DVDInfo / MediaInfo / BDInfo

General
Complete name : F:\фильмы\Tila.Tequila.Uncorked.XXX.DVDRip\jiggly-ttuncorked-cd1.avi
Format : AVI
Format/Info : Audio Video Interleave
File size : 696 MiB
Duration : 1h 7mn
Overall bit rate : 1 432 Kbps
Writing application : VirtualDubMod 1.5.10.2 (build 2540/release)
Writing library : VirtualDubMod build 2540/release
Video
ID : 0
Format : MPEG-4 Visual
Format profile : Advanced Simple@L5
Format settings, BVOP : Yes
Format settings, QPel : No
Format settings, GMC : No warppoints
Format settings, Matrix : Default (MPEG)
Codec ID : XVID
Codec ID/Hint : XviD
Duration : 1h 7mn
Bit rate : 1 166 Kbps
Width : 640 pixels
Height : 352 pixels
Display aspect ratio : 16:9
Frame rate : 23.976 fps
Color space : YUV
Chroma subsampling : 4:2:0
Bit depth : 8 bits
Scan type : Progressive
Bits/(Pixel*Frame) : 0.216
Stream size : 567 MiB (81%)
Writing library : XviD 1.2.1 (UTC 2008-12-04)
Audio
ID : 1
Format : AC-3
Format/Info : Audio Coding 3
Mode extension : CM (complete main)
Codec ID : 2000
Duration : 1h 7mn
Bit rate mode : Constant
Bit rate : 256 Kbps
Channel(s) : 2 channels
Channel positions : Front: L R
Sampling rate : 48.0 KHz
Stream size : 125 MiB (18%)
Alignment : Split accross interleaves
Interleave, duration : 42 ms (1.00 video frame)
Interleave, preload duration : 500 ms
General
Complete name : F:\фильмы\Tila.Tequila.Uncorked.XXX.DVDRip\jiggly-ttuncorked-cd2.avi
Format : AVI
Format/Info : Audio Video Interleave
File size : 697 MiB
Duration : 1h 9mn
Overall bit rate : 1 393 Kbps
Writing application : VirtualDubMod 1.5.10.2 (build 2540/release)
Writing library : VirtualDubMod build 2540/release
Video
ID : 0
Format : MPEG-4 Visual
Format profile : Advanced Simple@L5
Format settings, BVOP : Yes
Format settings, QPel : No
Format settings, GMC : No warppoints
Format settings, Matrix : Default (MPEG)
Codec ID : XVID
Codec ID/Hint : XviD
Duration : 1h 9mn
Bit rate : 1 128 Kbps
Width : 640 pixels
Height : 352 pixels
Display aspect ratio : 16:9
Frame rate : 23.976 fps
Color space : YUV
Chroma subsampling : 4:2:0
Bit depth : 8 bits
Scan type : Progressive
Bits/(Pixel*Frame) : 0.209
Stream size : 564 MiB (81%)
Writing library : XviD 1.2.1 (UTC 2008-12-04)
Audio
ID : 1
Format : AC-3
Format/Info : Audio Coding 3
Mode extension : CM (complete main)
Codec ID : 2000
Duration : 1h 9mn
Bit rate mode : Constant
Bit rate : 256 Kbps
Channel(s) : 2 channels
Channel positions : Front: L R
Sampling rate : 48.0 KHz
Video delay : 30ms
Stream size : 128 MiB (18%)
Alignment : Split accross interleaves
Interleave, duration : 42 ms (1.00 video frame)
Interleave, preload duration : 500 ms


Последний раз редактировалось: zaichik94 (2011-04-04 15:35), всего редактировалось 1 раз
[Профиль] [ЛС]

alticor

Пол: Мужской

Стаж: 13 года

Сообщений: 458

Создавать темы 04-Апр-2011 15:26 (спустя 8 минуты)

[Цитировать]

Перевод: Не требуется
Язык: Английский
Уверен, что ВСЕ знают английский?
Может все таки так: Перевод: отсутствует
[Профиль] [ЛС]

HarveyPlern

Пол: Мужской

Стаж: 4 месяца 23 дня

Сообщений: 4

Откуда: Россия

Создавать темы 20-Июн-2021 23:45 (спустя 10 года)

[Цитировать]

Автоинструктор в Измайлово, Гольяново, Соколиная гора, Семеновский.
Автоинструктор метро Измайловская, Первомайская, Щелковская, Партизанская.
Автоинструктор МКПП в Москве. Инструктор по вождению в Измайлово.
Недорогие курсы вождения с автоинструктором в ВАО. Частный инструктор по вождению в Москве.
https://autoinstruktor.1c-umi.ru В стоимость включены: 25 практических занятий( метро Партизанская или Водный Стадион) + курс теории (очно- у метро Водный Стадион; или заочно – вам вышлют промокод и вы получите доступ к видео урокам). Поскольку я преподаю теорию, то все вопросы связанные с ней, мы сможем разобрать в процессе практических занятий. И это, как показывает практика, самый лучший способ изучения теории.
Обучение в автошколе занимает в среднем 3 месяца.
По окончании автошколы вы получаете документы необходимые для сдачи экзамена в ГИБДД. С этими документами вы можете сдавать экзамены в любом подразделении ГИБДД на всей территории РФ.
[Профиль] [ЛС]
Показать сообщения:    
Ответить на тему

Текущее время: 02-Авг 06:41

Часовой пояс: UTC + 3



Вы не можете начинать темы
Вы не можете отвечать на сообщения
Вы не можете редактировать свои сообщения
Вы не можете удалять свои сообщения
Вы не можете голосовать в опросах
Вы не можете прикреплять файлы к сообщениям
Вы не можете скачивать файлы