(Pop Punk / Britpop) Coldplay - Mylo Xyloto (Japanese Release) - 2011, FLAC (tracks + .cue), lossless

Ответить на тему
 
Автор Сообщение

Three7 ®

Пол: Мужской

Стаж: 13 года

Сообщений: 423

Откуда: Тула

Создавать темы 06-Ноя-2011 21:57

[Цитировать]

Coldplay - Mylo Xyloto (Japanese Release)- Страна: UK
Жанр: Pop Punk / Britpop
Год выпуска: 2011
Формат: FLAC (tracks + .cue)
Битрейт аудио: lossless
Продолжительность: 00:56:12
Трэклист:
01. Mylo Xyloto
02. Hurts Like Heaven
03. Paradise
04. Charlie Brown
05. Us Against the World
06. M.M.I.X.
07. Every Teardrop Is a Waterfall
08. Major Minus
09. U.F.O.
10. Princess of China (featuring Rihanna)
11. Up in Flames
12. A Hopeful Transmission
13. Don’t Let It Break Your Heart
14. Up with the Birds
15. Charlie Brown (Bonus Track)
16. Life Is for Living (Bonus Track)
17. Every Teardrop Is a Waterfall (Bonus Track)

Лог создания рипа

Exact Audio Copy V1.0 beta 3 from 29. August 2011
EAC extraction logfile from 30. October 2011, 15:48
Coldplay / Mylo Xyloto
Used drive  : MATSHITADVD-R   UJ-898   Adapter: 1  ID: 0
Read mode               : Secure
Utilize accurate stream : Yes
Defeat audio cache      : Yes
Make use of C2 pointers : No
Read offset correction                      : 102
Overread into Lead-In and Lead-Out          : No
Fill up missing offset samples with silence : Yes
Delete leading and trailing silent blocks   : No
Null samples used in CRC calculations       : Yes
Used interface                              : Native Win32 interface for Win NT & 2000
Gap handling                                : Appended to previous track
Used output format              : User Defined Encoder
Selected bitrate                : 768 kBit/s
Quality                         : High
Add ID3 tag                     : No
Command line compressor         : C:\Program Files\Exact Audio Copy\FLAC\FLAC.EXE
Additional command line options : -6 -V -T "ARTIST=%artist%" -T "TITLE=%title%" -T "ALBUM=%albumtitle%" -T "DATE=%year%" -T "TRACKNUMBER=%tracknr%" -T "GENRE=%genre%" -T "COMMENT=%comment%" -T "BAND=%albuminterpret%" -T "ALBUMARTIST=%albuminterpret%" -T "COMPOSER=%composer%" %haslyrics%--tag-from-file=LYRICS="%lyricsfile%"%haslyrics% -T "DISCNUMBER=%cdnumber%" -T "TOTALDISCS=%totalcds%" -T "TOTALTRACKS=%numtracks%" %hascover%--picture="%coverfile%"%hascover% %source% -o %dest%
TOC of the extracted CD
     Track |   Start  |  Length  | Start sector | End sector
    ---------------------------------------------------------
        1  |  0:00.00 |  0:43.04 |         0    |     3228
        2  |  0:43.04 |  4:02.10 |      3229    |    21388
        3  |  4:45.14 |  4:37.46 |     21389    |    42209
        4  |  9:22.60 |  4:45.12 |     42210    |    63596
        5  | 14:07.72 |  3:59.58 |     63597    |    81579
        6  | 18:07.55 |  0:48.43 |     81580    |    85222
        7  | 18:56.23 |  4:00.60 |     85223    |   103282
        8  | 22:57.08 |  3:30.17 |    103283    |   119049
        9  | 26:27.25 |  2:17.60 |    119050    |   129384
       10  | 28:45.10 |  3:59.16 |    129385    |   147325
       11  | 32:44.26 |  3:13.18 |    147326    |   161818
       12  | 35:57.44 |  0:33.09 |    161819    |   164302
       13  | 36:30.53 |  3:53.74 |    164303    |   181851
       14  | 40:24.52 |  3:49.08 |    181852    |   199034
       15  | 44:13.60 |  4:48.01 |    199035    |   220635
       16  | 49:01.61 |  2:29.41 |    220636    |   231851
       17  | 51:31.27 |  4:40.20 |    231852    |   252871
Track  1
     Filename C:\Users\apple\Desktop\01. Mylo Xyloto.wav
     Pre-gap length  0:00:02.00
     Peak level 75.0 %
     Extraction speed 1.5 X
     Track quality 100.0 %
     Test CRC 91C0E3D8
     Copy CRC 91C0E3D8
     Track not present in AccurateRip database
     Copy OK
Track  2
     Filename C:\Users\apple\Desktop\02. Hurts Like Heaven.wav
     Peak level 100.0 %
     Extraction speed 2.8 X
     Track quality 100.0 %
     Test CRC 3FC7B962
     Copy CRC 3FC7B962
     Track not present in AccurateRip database
     Copy OK
Track  3
     Filename C:\Users\apple\Desktop\03. Paradise.wav
     Peak level 100.0 %
     Extraction speed 3.2 X
     Track quality 100.0 %
     Test CRC CF9EBE04
     Copy CRC CF9EBE04
     Track not present in AccurateRip database
     Copy OK
Track  4
     Filename C:\Users\apple\Desktop\04. Charlie Brown.wav
     Peak level 100.0 %
     Extraction speed 3.0 X
     Track quality 99.9 %
     Test CRC A87B9194
     Copy CRC A87B9194
     Track not present in AccurateRip database
     Copy OK
Track  5
     Filename C:\Users\apple\Desktop\05. Us Against The World.wav
     Peak level 98.9 %
     Extraction speed 3.7 X
     Track quality 100.0 %
     Test CRC 74594E0F
     Copy CRC 74594E0F
     Track not present in AccurateRip database
     Copy OK
Track  6
     Filename C:\Users\apple\Desktop\06. M.M.I.X.wav
     Peak level 19.1 %
     Extraction speed 2.4 X
     Track quality 100.0 %
     Test CRC 375E1E12
     Copy CRC 375E1E12
     Track not present in AccurateRip database
     Copy OK
Track  7
     Filename C:\Users\apple\Desktop\07. Every Teardrop Is A Waterfall.wav
     Peak level 100.0 %
     Extraction speed 4.0 X
     Track quality 100.0 %
     Test CRC 2871265E
     Copy CRC 2871265E
     Track not present in AccurateRip database
     Copy OK
Track  8
     Filename C:\Users\apple\Desktop\08. Major Minus.wav
     Peak level 100.0 %
     Extraction speed 4.1 X
     Track quality 100.0 %
     Test CRC 16711727
     Copy CRC 16711727
     Track not present in AccurateRip database
     Copy OK
Track  9
     Filename C:\Users\apple\Desktop\09. U.F.O..wav
     Pre-gap length  0:00:00.01
     Peak level 99.6 %
     Extraction speed 2.9 X
     Track quality 99.9 %
     Test CRC 1813C620
     Copy CRC 1813C620
     Track not present in AccurateRip database
     Copy OK
Track 10
     Filename C:\Users\apple\Desktop\10. Princess of China.wav
     Pre-gap length  0:02:17.59
     Peak level 100.0 %
     Extraction speed 4.5 X
     Track quality 100.0 %
     Test CRC 5F49367D
     Copy CRC 5F49367D
     Track not present in AccurateRip database
     Copy OK
Track 11
     Filename C:\Users\apple\Desktop\11. Up In Flames.wav
     Pre-gap length  0:03:59.15
     Peak level 98.9 %
     Extraction speed 4.5 X
     Track quality 100.0 %
     Test CRC 7A5A0219
     Copy CRC 7A5A0219
     Track not present in AccurateRip database
     Copy OK
Track 12
     Filename C:\Users\apple\Desktop\12. A Hopeful Transmission.wav
     Pre-gap length  0:03:13.17
     Peak level 72.6 %
     Extraction speed 2.4 X
     Track quality 100.0 %
     Test CRC 42F2FD73
     Copy CRC 42F2FD73
     Track not present in AccurateRip database
     Copy OK
Track 13
     Filename C:\Users\apple\Desktop\13. Don't Let It Break Your Heart.wav
     Pre-gap length  0:00:33.08
     Peak level 100.0 %
     Extraction speed 4.6 X
     Track quality 100.0 %
     Test CRC 2082CE61
     Copy CRC 2082CE61
     Track not present in AccurateRip database
     Copy OK
Track 14
     Filename C:\Users\apple\Desktop\14. Up With The Birds.wav
     Pre-gap length  0:03:53.73
     Peak level 100.0 %
     Extraction speed 5.0 X
     Track quality 100.0 %
     Test CRC 21DAA184
     Copy CRC 21DAA184
     Track not present in AccurateRip database
     Copy OK
Track 15
     Filename C:\Users\apple\Desktop\15. Charlie Brown (Live from Glastonbury 2011).wav
     Pre-gap length  0:03:49.07
     Peak level 100.0 %
     Extraction speed 5.2 X
     Track quality 100.0 %
     Test CRC 1BDB1905
     Copy CRC 1BDB1905
     Track not present in AccurateRip database
     Copy OK
Track 16
     Filename C:\Users\apple\Desktop\16. Life Is For Living (Live from Glastonbury 2011).wav
     Pre-gap length  0:04:48.00
     Peak level 100.0 %
     Extraction speed 4.8 X
     Track quality 100.0 %
     Test CRC F9BF3FC3
     Copy CRC F9BF3FC3
     Track not present in AccurateRip database
     Copy OK
Track 17
     Filename C:\Users\apple\Desktop\17. Every Teardrop Is A Waterfall (Live from Glastonbury 2011).wav
     Pre-gap length  0:02:29.40
     Peak level 100.0 %
     Extraction speed 5.6 X
     Track quality 100.0 %
     Test CRC 2705A271
     Copy CRC 2705A271
     Track not present in AccurateRip database
     Copy OK
None of the tracks are present in the AccurateRip database
No errors occurred
End of status report
==== Log checksum 42ACFDB2A9E03E17E31670813987B46B76B61044DCD2B7ABF65E6777F0BB4DB0 ====

Содержание индексной карты (.cue)

TITLE "Mylo Xyloto"
PERFORMER "Coldplay"
FILE "01. Mylo Xyloto.flac" FLAC
REM FILE-DECODED-SIZE 00:43:04
  TRACK 01 AUDIO
    TITLE "Mylo Xyloto"
    PERFORMER "Coldplay"
    INDEX 01 00:00:00
FILE "02. Hurts Like Heaven.flac" FLAC
REM FILE-DECODED-SIZE 04:02:10
  TRACK 02 AUDIO
    TITLE "Hurts Like Heaven"
    PERFORMER "Coldplay"
    INDEX 01 00:00:00
FILE "03. Paradise.flac" FLAC
REM FILE-DECODED-SIZE 04:37:46
  TRACK 03 AUDIO
    TITLE "Paradise"
    PERFORMER "Coldplay"
    INDEX 01 00:00:00
FILE "04. Charlie Brown.flac" FLAC
REM FILE-DECODED-SIZE 04:45:12
  TRACK 04 AUDIO
    TITLE "Charlie Brown"
    PERFORMER "Coldplay"
    INDEX 01 00:00:00
FILE "05. Us Against The World.flac" FLAC
REM FILE-DECODED-SIZE 03:59:58
  TRACK 05 AUDIO
    TITLE "Us Against The World"
    PERFORMER "Coldplay"
    INDEX 01 00:00:00
FILE "06. M.M.I.X.flac" FLAC
REM FILE-DECODED-SIZE 00:48:43
  TRACK 06 AUDIO
    TITLE "M.M.I.X"
    PERFORMER "Coldplay"
    INDEX 01 00:00:00
FILE "07. Every Teardrop Is A Waterfall.flac" FLAC
REM FILE-DECODED-SIZE 04:00:60
  TRACK 07 AUDIO
    TITLE "Every Teardrop Is A Waterfall"
    PERFORMER "Coldplay"
    INDEX 01 00:00:00
FILE "08. Major Minus.flac" FLAC
REM FILE-DECODED-SIZE 03:30:17
  TRACK 08 AUDIO
    TITLE "Major Minus"
    PERFORMER "Coldplay"
    INDEX 01 00:00:00
FILE "09. U.F.O..flac" FLAC
REM FILE-DECODED-SIZE 02:17:60
  TRACK 09 AUDIO
    TITLE "U.F.O."
    PERFORMER "Coldplay"
    INDEX 01 00:00:00
FILE "10. Princess of China.flac" FLAC
REM FILE-DECODED-SIZE 03:59:16
  TRACK 10 AUDIO
    TITLE "Princess of China"
    PERFORMER "Coldplay"
    INDEX 01 00:00:00
FILE "11. Up In Flames.flac" FLAC
REM FILE-DECODED-SIZE 03:13:18
  TRACK 11 AUDIO
    TITLE "Up In Flames"
    PERFORMER "Coldplay"
    INDEX 01 00:00:00
FILE "12. A Hopeful Transmission.flac" FLAC
REM FILE-DECODED-SIZE 00:33:09
  TRACK 12 AUDIO
    TITLE "A Hopeful Transmission"
    PERFORMER "Coldplay"
    INDEX 01 00:00:00
FILE "13. Don't Let It Break Your Heart.flac" FLAC
REM FILE-DECODED-SIZE 03:53:74
  TRACK 13 AUDIO
    TITLE "Don't Let It Break Your Heart"
    PERFORMER "Coldplay"
    INDEX 01 00:00:00
FILE "14. Up With The Birds.flac" FLAC
REM FILE-DECODED-SIZE 03:49:08
  TRACK 14 AUDIO
    TITLE "Up With The Birds"
    PERFORMER "Coldplay"
    INDEX 01 00:00:00
FILE "15. Charlie Brown (Live from Glastonbury 2011).flac" FLAC
REM FILE-DECODED-SIZE 04:48:01
  TRACK 15 AUDIO
    TITLE "Charlie Brown (Live from Glastonbury 2011)"
    PERFORMER "Coldplay"
    INDEX 01 00:00:00
FILE "16. Life Is For Living (Live from Glastonbury 2011).flac" FLAC
REM FILE-DECODED-SIZE 02:29:41
  TRACK 16 AUDIO
    TITLE "Life Is For Living (Live from Glastonbury 2011)"
    PERFORMER "Coldplay"
    INDEX 01 00:00:00
FILE "17. Every Teardrop Is A Waterfall (Live from Glastonbury 2011).flac" FLAC
REM FILE-DECODED-SIZE 04:40:20
  TRACK 17 AUDIO
    TITLE "Every Teardrop Is A Waterfall (Live from Glastonbury 2011)"
    PERFORMER "Coldplay"
    INDEX 01 00:00:00
[Профиль] [ЛС]

Мак

Пол: Не указан

Стаж: 13 года

Сообщений: 2

Создавать темы 08-Ноя-2011 14:26 (спустя 1 день 16 часа)

[Цитировать]

Что-то прямо-таки они разочаровали меня с этим альбомом...И вроде бы отдельные песни ничего, но не покидает ощущения, что это повтор самих себя...
[Профиль] [ЛС]

DavidNaf

Пол: Не указан

Стаж: 4 месяца 6 дня

Сообщений: 1

Создавать темы 15-Май-2021 00:28 (спустя 9 года 6 месяца)

[Цитировать]

In service rent.today you can rent game Call of Duty: Black Ops Cold War for Xbox ONE
And many other games 1 day/1$.
- - - -
https://rent4.today/call-of-duty-black-ops-cold-war-xbox-one
- - - -
Rent4.today - это сервис аренды игр для Xbox ONE.
Call of Duty: Black Ops Cold War можно взять в аренду всего за 1 день/1$
call of duty world at
[Профиль] [ЛС]

Propecia

Пол: Мужской

Стаж: 25 дня

Сообщений: 291

Откуда: Cook Islands

Создавать темы 10-Сен-2021 03:48 (спустя 3 месяца 26 дня)

[Цитировать]

How Much Is 100mg Of Clomid
[Профиль] [ЛС]

Plaquenil

Пол: Мужской

Стаж: 7 дня

Сообщений: 178

Откуда: Cook Islands

Создавать темы 15-Сен-2021 08:53 (спустя 5 дня)

[Цитировать]

cialis for once
[Профиль] [ЛС]

Zithromax

Пол: Мужской

Стаж: 7 дня

Сообщений: 163

Откуда: Cook Islands

Создавать темы 18-Сен-2021 01:34 (спустя 2 дня 16 часа)

[Цитировать]

Prescriptions Amoxicillin
[Профиль] [ЛС]

Plaquenil

Пол: Мужской

Стаж: 7 дня

Сообщений: 178

Откуда: Cook Islands

Создавать темы Вчера, в 00:44 (спустя 1 день 23 часа)

[Цитировать]

Priligy 30 Preis
[Профиль] [ЛС]
Показать сообщения:    
Ответить на тему

Текущее время: 21-Сен 18:17

Часовой пояс: UTC + 3



Вы не можете начинать темы
Вы не можете отвечать на сообщения
Вы не можете редактировать свои сообщения
Вы не можете удалять свои сообщения
Вы не можете голосовать в опросах
Вы не можете прикреплять файлы к сообщениям
Вы не можете скачивать файлы