(Trancecore / Experimental) Enter Shikari - Дискография (2004-2012), FLAC (tracks + .cue), lossless

Страницы :  1, 2, 3, 4, 5, 6, 7, 8, 9  След.

Ответить на тему
 
Автор Сообщение

Three7 ®

Пол: Мужской

Стаж: 13 года

Сообщений: 423

Откуда: Тула

Создавать темы 28-Янв-2012 20:18

[Цитировать]

- -Enter Shikari (или стилизовано ΣΠΤΣR SHΦΚΔRΦ) — английская рок-группа, играющая рок/хардкор, вперемешку с электронными семплами транса, драм-н-бэйса, дабстепа.--Страна: UK - Жанр: Trancecore / Experimental - Год выпуска: 2004-2012
Аудио кодек: FLAC (*.flac) - Тип рипа: tracks+.cue - Битрейт аудио: lossless
--

2004 - Sorry You're Not A Winner (EP)

01. Sorry You're Not A Winner (4:19)
02. When A Jealous Man Finds A Gun (4:42)
03. The Bearer Of Bad News (3:29)
04. Empty (4:25)
-

Лог создания рипа

EAC extraction logfile from 1. July 2007, 19:15 for CD
Enter Shikari / Sorry You're Not A Winner [EP]
Used drive  : LITE-ON DVDRW SHW-1635S   Adapter: 2  ID: 0
Read mode   : Secure with NO C2, accurate stream, disable cache
Read offset correction : 6
Overread into Lead-In and Lead-Out : No
Used output format : C:\Program Files\Exact Audio Copy\flac-1.1.4-win\bin\flac.exe   (User Defined Encoder)
                     192 kBit/s
                     Additional command line options : -8 -A tukey(0.25) -A gauss(0.1875) -b 4096 -V -T "artist=%a" -T "title=%t" -T "album=%g" -T "date=%y" -T "tracknumber=%n" -T "genre=%m" %s --sector-align
Other options      :
    Fill up missing offset samples with silence : Yes
    Delete leading and trailing silent blocks : No
    Installed external ASPI interface
Track  1
     Filename D:\Enter Shikari - Sorry You're Not A Winner [EP]\01 - Enter Shikari - Track01.wav
     Pre-gap length  0:00:02.00
     Peak level 61.5 %
     Track quality 100.0 %
     Test CRC 7A8F6DEB
     Copy CRC 7A8F6DEB
     Copy OK
Track  2
     Filename D:\Enter Shikari - Sorry You're Not A Winner [EP]\02 - Enter Shikari - Track02.wav
     Pre-gap length  0:00:02.00
     Peak level 57.3 %
     Track quality 99.9 %
     Test CRC A792114F
     Copy CRC A792114F
     Copy OK
Track  3
     Filename D:\Enter Shikari - Sorry You're Not A Winner [EP]\03 - Enter Shikari - Track03.wav
     Pre-gap length  0:00:02.00
     Peak level 59.8 %
     Track quality 100.0 %
     Test CRC D02B634A
     Copy CRC D02B634A
     Copy OK
Track  4
     Filename D:\Enter Shikari - Sorry You're Not A Winner [EP]\04 - Enter Shikari - Track04.wav
     Pre-gap length  0:00:02.00
     Peak level 56.2 %
     Track quality 99.9 %
     Test CRC BB4C59AD
     Copy CRC BB4C59AD
     Copy OK
No errors occured
End of status report

Содержание индексной карты (.cue)

REM GENRE Electronic
REM DATE 2004
REM DISCID 2503F704
REM COMMENT "ExactAudioCopy v0.95b3"
PERFORMER "Enter Shikari"
TITLE "Sorry You're Not A Winner [EP]"
FILE "01 - Sorry You're Not A Winner.flac" WAVE
  TRACK 01 AUDIO
    TITLE "Sorry You're Not A Winner"
    PERFORMER "Enter Shikari"
    INDEX 01 00:00:00
  TRACK 02 AUDIO
    TITLE "When A Jealous Man Finds A Gun"
    PERFORMER "Enter Shikari"
    INDEX 00 04:17:06
FILE "02 - When A Jealous Man Finds A Gun.flac" WAVE
    INDEX 01 00:00:00
  TRACK 03 AUDIO
    TITLE "The Bearer Of Bad News"
    PERFORMER "Enter Shikari"
    INDEX 00 04:40:16
FILE "03 - The Bearer Of Bad News.flac" WAVE
    INDEX 01 00:00:00
  TRACK 04 AUDIO
    TITLE "Empty"
    PERFORMER "Enter Shikari"
    INDEX 00 03:26:56
FILE "04 - Empty.flac" WAVE
    INDEX 01 00:00:00

2007 - Take To The Skies

01. Stand Your Ground; This Is Ancient Land (1:08)
02. Enter Shikari (2:52)
03. Mothership (4:30)
04. Anything Can Happen In The Next Half Hour (4:32)
05. Interlude 1 (1:01)
06. Labyrinth (3:51)
07. No Sssweat (3:16)
08. Today Won't Go Down In History (3:34)
09. Interlude 2 (1:28)
10. Return To Energizer (4:35)
11. Interlude 3 (0:18)
12. Sorry You're Not A Winner (3:52)
13. Interlude 4 (0:35)
14. Johnny Sniper (4:01)
15. Adieu (5:40)
16. Ok Time For Plan B (4:55)
17. Interlude 5 (2:44)
-

Лог создания рипа

Exact Audio Copy V1.0 beta 1 from 15. November 2010
EAC extraction logfile from 29. January 2011, 11:49
Enter Shikari / Take To The Skies
Used drive  : Optiarc DVD RW AD-7263S   Adapter: 5  ID: 0
Read mode               : Secure
Utilize accurate stream : Yes
Defeat audio cache      : Yes
Make use of C2 pointers : No
Read offset correction                      : 48
Overread into Lead-In and Lead-Out          : No
Fill up missing offset samples with silence : Yes
Delete leading and trailing silent blocks   : No
Null samples used in CRC calculations       : Yes
Used interface                              : Native Win32 interface for Win NT & 2000
Gap handling                                : Appended to previous track
Used output format              : User Defined Encoder
Selected bitrate                : 1024 kBit/s
Quality                         : High
Add ID3 tag                     : No
Command line compressor         : C:\Program Files\Exact Audio Copy\Flac\flac.exe
Additional command line options : -6 -V -T "ARTIST=%a" -T "TITLE=%t" -T "ALBUM=%g" -T "DATE=%y" -T "TRACKNUMBER=%n" -T "GENRE=%m" -T "COMMENT=%e" %j--picture="%i"%j %s -o %d
TOC of the extracted CD
     Track |   Start  |  Length  | Start sector | End sector
    ---------------------------------------------------------
        1  |  0:00.00 |  1:07.41 |         0    |     5065
        2  |  1:07.41 |  2:52.12 |      5066    |    17977
        3  |  3:59.53 |  4:29.68 |     17978    |    38220
        4  |  8:29.46 |  4:31.59 |     38221    |    58604
        5  | 13:01.30 |  1:00.45 |     58605    |    63149
        6  | 14:02.00 |  3:51.11 |     63150    |    80485
        7  | 17:53.11 |  3:15.70 |     80486    |    95180
        8  | 21:09.06 |  3:34.34 |     95181    |   111264
        9  | 24:43.40 |  1:27.43 |    111265    |   117832
       10  | 26:11.08 |  4:34.45 |    117833    |   138427
       11  | 30:45.53 |  0:18.33 |    138428    |   139810
       12  | 31:04.11 |  3:51.40 |    139811    |   157175
       13  | 34:55.51 |  0:35.21 |    157176    |   159821
       14  | 35:30.72 |  4:01.11 |    159822    |   177907
       15  | 39:32.08 |  5:40.10 |    177908    |   203417
       16  | 45:12.18 |  4:54.49 |    203418    |   225516
       17  | 50:06.67 |  2:44.13 |    225517    |   237829
Track  1
     Filename C:\Rips\01. Stand Your Ground; This is Ancient Land.wav
     Pre-gap length  0:00:02.00
     Peak level 68.1 %
     Extraction speed 1.6 X
     Track quality 100.0 %
     Test CRC 14A1C554
     Copy CRC 14A1C554
     Accurately ripped (confidence 5)  [A1964C44]
     Copy OK
Track  2
     Filename C:\Rips\02. Enter Shikari.wav
     Peak level 98.6 %
     Extraction speed 2.2 X
     Track quality 100.0 %
     Test CRC A67FDD9A
     Copy CRC A67FDD9A
     Accurately ripped (confidence 5)  [05476AC3]
     Copy OK
Track  3
     Filename C:\Rips\03. Mothership.wav
     Peak level 98.2 %
     Extraction speed 2.6 X
     Track quality 100.0 %
     Test CRC 798F0B92
     Copy CRC 798F0B92
     Accurately ripped (confidence 5)  [ABD88918]
     Copy OK
Track  4
     Filename C:\Rips\04. Anything Can Happen In The Next Half Hour....wav
     Peak level 99.8 %
     Extraction speed 2.9 X
     Track quality 100.0 %
     Test CRC C5B2B003
     Copy CRC C5B2B003
     Accurately ripped (confidence 5)  [DC428E01]
     Copy OK
Track  5
     Filename C:\Rips\05. Interlude.wav
     Peak level 75.9 %
     Extraction speed 2.1 X
     Track quality 100.0 %
     Test CRC 4F2450F4
     Copy CRC 4F2450F4
     Accurately ripped (confidence 5)  [9959CB0E]
     Copy OK
Track  6
     Filename C:\Rips\06. Labyrinth.wav
     Peak level 99.8 %
     Extraction speed 3.1 X
     Track quality 100.0 %
     Test CRC BE1F458D
     Copy CRC BE1F458D
     Accurately ripped (confidence 5)  [56EFFAA8]
     Copy OK
Track  7
     Filename C:\Rips\07. No Sssweat.wav
     Peak level 98.6 %
     Extraction speed 3.2 X
     Track quality 100.0 %
     Test CRC 95A9C96A
     Copy CRC 95A9C96A
     Accurately ripped (confidence 5)  [05636203]
     Copy OK
Track  8
     Filename C:\Rips\08. Today Won't Go Down In History.wav
     Peak level 98.5 %
     Extraction speed 3.4 X
     Track quality 100.0 %
     Test CRC 17B0B705
     Copy CRC 17B0B705
     Accurately ripped (confidence 5)  [30BF8384]
     Copy OK
Track  9
     Filename C:\Rips\09. Interlude 2.wav
     Pre-gap length  0:00:00.20
     Peak level 99.8 %
     Extraction speed 2.8 X
     Track quality 100.0 %
     Test CRC 397703AE
     Copy CRC 397703AE
     Accurately ripped (confidence 5)  [F8C23FB0]
     Copy OK
Track 10
     Filename C:\Rips\10. Return To Energiser.wav
     Peak level 98.4 %
     Extraction speed 3.4 X
     Track quality 99.9 %
     Test CRC E37910B2
     Copy CRC E37910B2
     Accurately ripped (confidence 5)  [AACDC998]
     Copy OK
Track 11
     Filename C:\Rips\11. Interlude 3.wav
     Peak level 43.2 %
     Extraction speed 1.4 X
     Track quality 100.0 %
     Test CRC D6FDF69E
     Copy CRC D6FDF69E
     Accurately ripped (confidence 5)  [BC93CC14]
     Copy OK
Track 12
     Filename C:\Rips\12. Sorry, You're Not A Winner.wav
     Peak level 99.8 %
     Extraction speed 3.9 X
     Track quality 100.0 %
     Test CRC ABDF2DEB
     Copy CRC ABDF2DEB
     Accurately ripped (confidence 5)  [C86BCC68]
     Copy OK
Track 13
     Filename C:\Rips\13. Interlude 4.wav
     Peak level 99.2 %
     Extraction speed 2.2 X
     Track quality 100.0 %
     Test CRC 7072253F
     Copy CRC 7072253F
     Accurately ripped (confidence 5)  [64F6A91F]
     Copy OK
Track 14
     Filename C:\Rips\14. Johnny Sniper.wav
     Peak level 98.7 %
     Extraction speed 4.1 X
     Track quality 100.0 %
     Test CRC B1F5580B
     Copy CRC B1F5580B
     Accurately ripped (confidence 5)  [3B9CF9A3]
     Copy OK
Track 15
     Filename C:\Rips\15. Adieu.wav
     Pre-gap length  0:00:01.49
     Peak level 98.6 %
     Extraction speed 4.5 X
     Track quality 100.0 %
     Test CRC AA229D23
     Copy CRC AA229D23
     Accurately ripped (confidence 5)  [3AFF7595]
     Copy OK
Track 16
     Filename C:\Rips\16. OK, Time For Plan B.wav
     Peak level 95.6 %
     Extraction speed 4.6 X
     Track quality 100.0 %
     Test CRC D0FF9578
     Copy CRC D0FF9578
     Accurately ripped (confidence 5)  [483DB03E]
     Copy OK
Track 17
     Filename C:\Rips\17. Closing.wav
     Peak level 99.8 %
     Extraction speed 4.3 X
     Track quality 100.0 %
     Test CRC 2D630A4A
     Copy CRC 2D630A4A
     Accurately ripped (confidence 5)  [F97A2A84]
     Copy OK
All tracks accurately ripped
No errors occurred
End of status report
==== Log checksum 5ECF185371C1B282D4E65AB43EE8F7F275788E0957528AC33DFCA98291424861 ====

Содержание индексной карты (.cue)

REM GENRE Trancecore
REM DATE 2007
REM DISCID E70C6311
REM COMMENT "ExactAudioCopy v1.0b1"
PERFORMER "Enter Shikari"
TITLE "Take To The Skies"
FILE "01. Stand Your Ground; This is Ancient Land.wav" WAVE
  TRACK 01 AUDIO
    TITLE "Stand Your Ground; This is Ancient Land"
    PERFORMER "Enter Shikari"
    INDEX 01 00:00:00
FILE "02. Enter Shikari.wav" WAVE
  TRACK 02 AUDIO
    TITLE "Enter Shikari"
    PERFORMER "Enter Shikari"
    INDEX 01 00:00:00
FILE "03. Mothership.wav" WAVE
  TRACK 03 AUDIO
    TITLE "Mothership"
    PERFORMER "Enter Shikari"
    INDEX 01 00:00:00
FILE "04. Anything Can Happen In The Next Half Hour....wav" WAVE
  TRACK 04 AUDIO
    TITLE "Anything Can Happen In The Next Half Hour..."
    PERFORMER "Enter Shikari"
    INDEX 01 00:00:00
FILE "05. Interlude.wav" WAVE
  TRACK 05 AUDIO
    TITLE "Interlude"
    PERFORMER "Enter Shikari"
    INDEX 01 00:00:00
FILE "06. Labyrinth.wav" WAVE
  TRACK 06 AUDIO
    TITLE "Labyrinth"
    PERFORMER "Enter Shikari"
    INDEX 01 00:00:00
FILE "07. No Sssweat.wav" WAVE
  TRACK 07 AUDIO
    TITLE "No Sssweat"
    PERFORMER "Enter Shikari"
    INDEX 01 00:00:00
FILE "08. Today Won't Go Down In History.wav" WAVE
  TRACK 08 AUDIO
    TITLE "Today Won't Go Down In History"
    PERFORMER "Enter Shikari"
    INDEX 01 00:00:00
  TRACK 09 AUDIO
    TITLE "Interlude 2"
    PERFORMER "Enter Shikari"
    INDEX 00 03:34:14
FILE "09. Interlude 2.wav" WAVE
    INDEX 01 00:00:00
FILE "10. Return To Energiser.wav" WAVE
  TRACK 10 AUDIO
    TITLE "Return To Energiser"
    PERFORMER "Enter Shikari"
    INDEX 01 00:00:00
FILE "11. Interlude 3.wav" WAVE
  TRACK 11 AUDIO
    TITLE "Interlude 3"
    PERFORMER "Enter Shikari"
    INDEX 01 00:00:00
FILE "12. Sorry, You're Not A Winner.wav" WAVE
  TRACK 12 AUDIO
    TITLE "Sorry, You're Not A Winner"
    PERFORMER "Enter Shikari"
    INDEX 01 00:00:00
FILE "13. Interlude 4.wav" WAVE
  TRACK 13 AUDIO
    TITLE "Interlude 4"
    PERFORMER "Enter Shikari"
    INDEX 01 00:00:00
FILE "14. Johnny Sniper.wav" WAVE
  TRACK 14 AUDIO
    TITLE "Johnny Sniper"
    PERFORMER "Enter Shikari"
    INDEX 01 00:00:00
  TRACK 15 AUDIO
    TITLE "Adieu"
    PERFORMER "Enter Shikari"
    INDEX 00 03:59:37
FILE "15. Adieu.wav" WAVE
    INDEX 01 00:00:00
FILE "16. OK, Time For Plan B.wav" WAVE
  TRACK 16 AUDIO
    TITLE "OK, Time For Plan B"
    PERFORMER "Enter Shikari"
    INDEX 01 00:00:00
FILE "17. Closing.wav" WAVE
  TRACK 17 AUDIO
    TITLE "Closing"
    PERFORMER "Enter Shikari"
    INDEX 01 00:00:00

2007 - The Zone

01. The Feast (demo) (2:52)
02. Kickin' Back on the Surface of Your Cheek (edit) (3:37)
03. Keep It on Ice (2:53)
04. Adieu (Routron 5000 remix) (7:23)
05. Sorry, You're Not a Winner (Zane Lowe BBC session) (4:23)
06. Mothership (demo) (4:49)
07. Acid Nation (3:12)
08. Enter Shikari (demo) (2:58)
09. Return To Energiser (Zane Lowe BBC Session) (5:24)
10. Keep It On Ice (Zane Lowe BBC Session) (2:57)
-

Лог создания рипа

X Lossless Decoder version 20101010 (123.3)
XLD extraction logfile from 2010-11-16 21:57:55 +0000
Enter Shikari / The Zone
Used drive : MATSHITA DVD-R   UJ-875 (revision DB09)
Use cdparanoia mode     : YES (CDParanoia III 10.2 engine)
Disable audio cache     : OK for the drive with cache less than 2750KB
Make use of C2 pointers : NO
Read offset correction  : 102
Max retry count         : 100
Gap status              : Analyzed, Appended
TOC of the extracted CD
     Track |   Start  |  Length  | Start sector | End sector
    ---------------------------------------------------------
        1  | 00:00:00 | 02:52:06 |         0    |    12905
        2  | 02:52:06 | 03:37:21 |     12906    |    29201
        3  | 06:29:27 | 02:53:09 |     29202    |    42185
        4  | 09:22:36 | 07:22:62 |     42186    |    75397
        5  | 16:45:23 | 04:23:35 |     75398    |    95157
        6  | 21:08:58 | 04:49:31 |     95158    |   116863
        7  | 25:58:14 | 03:12:12 |    116864    |   131275
        8  | 29:10:26 | 02:57:42 |    131276    |   144592
        9  | 32:07:68 | 05:24:13 |    144593    |   168905
       10  | 37:32:06 | 02:56:41 |    168906    |   182146
All Tracks
    Album gain             : -9.08 dB
    Peak                   : 0.998901
Track 01
    Filename : /Volumes/NO NAME/XLD/01 Enter Shikari - The Feast (Demo).flac
    Pre-gap length : 00:02:00
    Track gain             : -9.22 dB
    Peak                   : 0.958099
    CRC32 hash (test run)  : A643DF8C
    CRC32 hash             : A643DF8C
    CRC32 hash (skip zero) : 2515BB57
    AccurateRip signature  : 39D305BD
        ->Accurately ripped! (confidence 3)
    Statistics
        Read error                           : 0
        Skipped (treated as error)           : 0
        Edge jitter error (maybe fixed)      : 0
        Atom jitter error (maybe fixed)      : 0
        Drift error (maybe fixed)            : 0
        Dropped bytes error (maybe fixed)    : 0
        Duplicated bytes error (maybe fixed) : 0
        Inconsistency in error sectors       : 0
Track 02
    Filename : /Volumes/NO NAME/XLD/02 Enter Shikari - Kickin' Back On The Surface Of Your Cheeks.flac
    Pre-gap length : 00:02:30
    Track gain             : -7.43 dB
    Peak                   : 0.985565
    CRC32 hash (test run)  : 22754E90
    CRC32 hash             : 22754E90
    CRC32 hash (skip zero) : 876C594F
    AccurateRip signature  : 612810C2
        ->Accurately ripped! (confidence 3)
    Statistics
        Read error                           : 0
        Skipped (treated as error)           : 0
        Edge jitter error (maybe fixed)      : 0
        Atom jitter error (maybe fixed)      : 0
        Drift error (maybe fixed)            : 0
        Dropped bytes error (maybe fixed)    : 0
        Duplicated bytes error (maybe fixed) : 0
        Inconsistency in error sectors       : 0
Track 03
    Filename : /Volumes/NO NAME/XLD/03 Enter Shikari - Keep It On Ice.flac
    Pre-gap length : 00:00:01
    Track gain             : -5.05 dB
    Peak                   : 0.683472
    CRC32 hash (test run)  : 68DE2BFD
    CRC32 hash             : 68DE2BFD
    CRC32 hash (skip zero) : E95C1198
    AccurateRip signature  : 55106EAE
        ->Accurately ripped! (confidence 3)
    Statistics
        Read error                           : 0
        Skipped (treated as error)           : 0
        Edge jitter error (maybe fixed)      : 0
        Atom jitter error (maybe fixed)      : 0
        Drift error (maybe fixed)            : 0
        Dropped bytes error (maybe fixed)    : 0
        Duplicated bytes error (maybe fixed) : 0
        Inconsistency in error sectors       : 0
Track 04
    Filename : /Volumes/NO NAME/XLD/04 Enter Shikari - Adieu (Routron 5000 Remix).flac
    Pre-gap length : 00:00:01
    Track gain             : -6.45 dB
    Peak                   : 0.998901
    CRC32 hash (test run)  : D21EDCD5
    CRC32 hash             : D21EDCD5
    CRC32 hash (skip zero) : 82A13475
    AccurateRip signature  : 42D66AC6
        ->Accurately ripped! (confidence 3)
    Statistics
        Read error                           : 0
        Skipped (treated as error)           : 0
        Edge jitter error (maybe fixed)      : 0
        Atom jitter error (maybe fixed)      : 0
        Drift error (maybe fixed)            : 0
        Dropped bytes error (maybe fixed)    : 0
        Duplicated bytes error (maybe fixed) : 0
        Inconsistency in error sectors       : 0
Track 05
    Filename : /Volumes/NO NAME/XLD/05 Enter Shikari - Sorry You're Not A Winner (Zane Lowe BBC Session).flac
    Pre-gap length : 00:02:30
    Track gain             : -7.38 dB
    Peak                   : 0.998901
    CRC32 hash (test run)  : 91D0963B
    CRC32 hash             : 91D0963B
    CRC32 hash (skip zero) : 554BF594
    AccurateRip signature  : AFED0BCE
        ->Accurately ripped! (confidence 3)
    Statistics
        Read error                           : 0
        Skipped (treated as error)           : 0
        Edge jitter error (maybe fixed)      : 0
        Atom jitter error (maybe fixed)      : 0
        Drift error (maybe fixed)            : 0
        Dropped bytes error (maybe fixed)    : 0
        Duplicated bytes error (maybe fixed) : 0
        Inconsistency in error sectors       : 0
Track 06
    Filename : /Volumes/NO NAME/XLD/06 Enter Shikari - Mothership (Demo).flac
    Pre-gap length : 00:02:30
    Track gain             : -10.43 dB
    Peak                   : 0.890320
    CRC32 hash (test run)  : A834D073
    CRC32 hash             : A834D073
    CRC32 hash (skip zero) : BBBE66BC
    AccurateRip signature  : 67C5F3C0
        ->Accurately ripped! (confidence 3)
    Statistics
        Read error                           : 0
        Skipped (treated as error)           : 0
        Edge jitter error (maybe fixed)      : 0
        Atom jitter error (maybe fixed)      : 0
        Drift error (maybe fixed)            : 0
        Dropped bytes error (maybe fixed)    : 0
        Duplicated bytes error (maybe fixed) : 0
        Inconsistency in error sectors       : 0
Track 07
    Filename : /Volumes/NO NAME/XLD/07 Enter Shikari - Acid Nation.flac
    Pre-gap length : 00:02:30
    Track gain             : -7.58 dB
    Peak                   : 0.892242
    CRC32 hash (test run)  : 30F879F1
    CRC32 hash             : 30F879F1
    CRC32 hash (skip zero) : 38AB5FF8
    AccurateRip signature  : 4F694A21
        ->Accurately ripped! (confidence 3)
    Statistics
        Read error                           : 0
        Skipped (treated as error)           : 0
        Edge jitter error (maybe fixed)      : 0
        Atom jitter error (maybe fixed)      : 0
        Drift error (maybe fixed)            : 0
        Dropped bytes error (maybe fixed)    : 0
        Duplicated bytes error (maybe fixed) : 0
        Inconsistency in error sectors       : 0
Track 08
    Filename : /Volumes/NO NAME/XLD/08 Enter Shikari - Enter Shikari (Demo).flac
    Pre-gap length : 00:02:30
    Track gain             : -10.10 dB
    Peak                   : 0.959412
    CRC32 hash (test run)  : A515B424
    CRC32 hash             : A515B424
    CRC32 hash (skip zero) : 568B2F8C
    AccurateRip signature  : C0C4123B
        ->Accurately ripped! (confidence 3)
    Statistics
        Read error                           : 0
        Skipped (treated as error)           : 0
        Edge jitter error (maybe fixed)      : 0
        Atom jitter error (maybe fixed)      : 0
        Drift error (maybe fixed)            : 0
        Dropped bytes error (maybe fixed)    : 0
        Duplicated bytes error (maybe fixed) : 0
        Inconsistency in error sectors       : 0
Track 09
    Filename : /Volumes/NO NAME/XLD/09 Enter Shikari - Return To Energiser (Zane Lowe BBC Session).flac
    Pre-gap length : 00:06:63
    Track gain             : -8.92 dB
    Peak                   : 0.998901
    CRC32 hash (test run)  : A17D978D
    CRC32 hash             : A17D978D
    CRC32 hash (skip zero) : 3D5249F2
    AccurateRip signature  : D4A146E3
        ->Accurately ripped! (confidence 3)
    Statistics
        Read error                           : 0
        Skipped (treated as error)           : 0
        Edge jitter error (maybe fixed)      : 0
        Atom jitter error (maybe fixed)      : 0
        Drift error (maybe fixed)            : 0
        Dropped bytes error (maybe fixed)    : 0
        Duplicated bytes error (maybe fixed) : 0
        Inconsistency in error sectors       : 0
Track 10
    Filename : /Volumes/NO NAME/XLD/10 Enter Shikari - Keep It On Ice (Zane Lowe BBC Session).flac
    Pre-gap length : 00:03:69
    Track gain             : -7.21 dB
    Peak                   : 0.998901
    CRC32 hash (test run)  : 007C4313
    CRC32 hash             : 007C4313
    CRC32 hash (skip zero) : 004385DA
    AccurateRip signature  : D24FAB06
        ->Accurately ripped! (confidence 3)
    Statistics
        Read error                           : 0
        Skipped (treated as error)           : 0
        Edge jitter error (maybe fixed)      : 0
        Atom jitter error (maybe fixed)      : 0
        Drift error (maybe fixed)            : 0
        Dropped bytes error (maybe fixed)    : 0
        Duplicated bytes error (maybe fixed) : 0
        Inconsistency in error sectors       : 0
No errors occurred
End of status report

Содержание индексной карты (.cue)

TTITLE "The Zone"
PERFORMER "Enter Shikari"
REM GENRE "Electronica/Dance"
REM DATE 2007
REM DISCNUMBER 1
REM TOTALDISCS 1
REM DISCID 79097C0A
REM REPLAYGAIN_ALBUM_GAIN -9.08 dB
REM REPLAYGAIN_ALBUM_PEAK 0.998901
FILE "01 - The Feast (Demo).wav" WAVE
  TRACK 01 AUDIO
    TITLE "The Feast (Demo)"
    ISRC GBNPA0600005
    REM REPLAYGAIN_TRACK_GAIN -9.22 dB
    REM REPLAYGAIN_TRACK_PEAK 0.958099
    INDEX 01 00:00:00
  TRACK 02 AUDIO
    TITLE "Kickin' Back On The Surface Of Your Cheeks"
    ISRC GBNPA0700001
    REM REPLAYGAIN_TRACK_GAIN -7.43 dB
    REM REPLAYGAIN_TRACK_PEAK 0.985565
    INDEX 00 02:49:51
FILE "02 - Kickin' Back On The Surface Of Your Cheeks.wav" WAVE
    INDEX 01 00:00:00
  TRACK 03 AUDIO
    TITLE "Keep It On Ice"
    ISRC GBNPA0700002
    REM REPLAYGAIN_TRACK_GAIN -5.05 dB
    REM REPLAYGAIN_TRACK_PEAK 0.683472
    INDEX 00 03:37:20
FILE "03 - Keep It On Ice.wav" WAVE
    INDEX 01 00:00:00
  TRACK 04 AUDIO
    TITLE "Adieu (Routron 5000 Remix)"
    ISRC GBNPA0700025
    REM REPLAYGAIN_TRACK_GAIN -6.45 dB
    REM REPLAYGAIN_TRACK_PEAK 0.998901
    INDEX 00 02:53:08
FILE "04 - Adieu (Routron 5000 Remix).wav" WAVE
    INDEX 01 00:00:00
  TRACK 05 AUDIO
    TITLE "Sorry You're Not A Winner (Zane Lowe BBC Session)"
    ISRC GBCAD0706533
    REM REPLAYGAIN_TRACK_GAIN -7.38 dB
    REM REPLAYGAIN_TRACK_PEAK 0.998901
    INDEX 00 07:20:32
FILE "05 - Sorry You're Not A Winner (Zane Lowe BBC Session).wav" WAVE
    INDEX 01 00:00:00
  TRACK 06 AUDIO
    TITLE "Mothership (Demo)"
    ISRC GBNPA0600001
    REM REPLAYGAIN_TRACK_GAIN -10.43 dB
    REM REPLAYGAIN_TRACK_PEAK 0.890320
    INDEX 00 04:21:05
FILE "06 - Mothership (Demo).wav" WAVE
    INDEX 01 00:00:00
  TRACK 07 AUDIO
    TITLE "Acid Nation"
    ISRC GBNPA0600001
    REM REPLAYGAIN_TRACK_GAIN -7.58 dB
    REM REPLAYGAIN_TRACK_PEAK 0.892242
    INDEX 00 04:47:01
FILE "07 - Acid Nation.wav" WAVE
    INDEX 01 00:00:00
  TRACK 08 AUDIO
    TITLE "Enter Shikari (Demo)"
    REM REPLAYGAIN_TRACK_GAIN -10.10 dB
    REM REPLAYGAIN_TRACK_PEAK 0.959412
    INDEX 00 03:09:57
FILE "08 - Enter Shikari (Demo).wav" WAVE
    INDEX 01 00:00:00
  TRACK 09 AUDIO
    TITLE "Return To Energiser (Zane Lowe BBC Session)"
    REM REPLAYGAIN_TRACK_GAIN -8.92 dB
    REM REPLAYGAIN_TRACK_PEAK 0.998901
    INDEX 00 02:50:54
FILE "09 - Return To Energiser (Zane Lowe BBC Session).wav" WAVE
    INDEX 01 00:00:00
  TRACK 10 AUDIO
    TITLE "Keep It On Ice (Zane Lowe BBC Session)"
    REM REPLAYGAIN_TRACK_GAIN -7.21 dB
    REM REPLAYGAIN_TRACK_PEAK 0.998901
    INDEX 00 05:20:19
FILE "10 - Keep It On Ice (Zane Lowe BBC Session).wav" WAVE
    INDEX 01 00:00:00

2009 - Common Dreads

01. Common Dreads (2:08)
02. Solidarity (3:16)
03. Step Up (4:40)
04. Juggernauts (4:44)
05. Wall (4:29)
06. Zzzonked (3:27)
07. Havoc A (1:40)
08. No Sleep Tonight (4:16)
09. Gap In The Fence (4:07)
10. Havoc B (2:52)
11. Antwerpen (3:15)
12. The Jester (3:55)
13. Halcyon (Intro) (0:42)
14. Hectic (3:17)
15. Fanfare For The Concious Man (3:45)
-

Лог создания рипа

Exact Audio Copy V1.0 beta 1 from 15. November 2010
EAC extraction logfile from 8. February 2011, 10:01
Enter Shikari / Common Dreads
Used drive  : Optiarc DVD RW AD-7263S   Adapter: 5  ID: 0
Read mode               : Secure
Utilize accurate stream : Yes
Defeat audio cache      : Yes
Make use of C2 pointers : No
Read offset correction                      : 48
Overread into Lead-In and Lead-Out          : No
Fill up missing offset samples with silence : Yes
Delete leading and trailing silent blocks   : No
Null samples used in CRC calculations       : Yes
Used interface                              : Native Win32 interface for Win NT & 2000
Gap handling                                : Appended to previous track
Used output format              : User Defined Encoder
Selected bitrate                : 1024 kBit/s
Quality                         : High
Add ID3 tag                     : No
Command line compressor         : C:\Program Files\Exact Audio Copy\Flac\flac.exe
Additional command line options : -6 -V -T "ARTIST=%a" -T "TITLE=%t" -T "ALBUM=%g" -T "DATE=%y" -T "TRACKNUMBER=%n" -T "GENRE=%m" -T "COMMENT=%e" %j--picture="%i"%j %s -o %d
TOC of the extracted CD
     Track |   Start  |  Length  | Start sector | End sector
    ---------------------------------------------------------
        1  |  0:00.00 |  2:08.09 |         0    |     9608
        2  |  2:08.09 |  3:15.57 |      9609    |    24290
        3  |  5:23.66 |  4:40.18 |     24291    |    45308
        4  | 10:04.09 |  4:43.70 |     45309    |    66603
        5  | 14:48.04 |  4:29.16 |     66604    |    86794
        6  | 19:17.20 |  3:27.25 |     86795    |   102344
        7  | 22:44.45 |  1:40.12 |    102345    |   109856
        8  | 24:24.57 |  4:16.25 |    109857    |   129081
        9  | 28:41.07 |  4:06.48 |    129082    |   147579
       10  | 32:47.55 |  2:52.26 |    147580    |   160505
       11  | 35:40.06 |  3:14.53 |    160506    |   175108
       12  | 38:54.59 |  3:55.32 |    175109    |   192765
       13  | 42:50.16 |  0:41.67 |    192766    |   195907
       14  | 43:32.08 |  3:17.12 |    195908    |   210694
       15  | 46:49.20 |  3:44.59 |    210695    |   227553
Track  1
     Filename C:\Rips\01. Common Dreads.wav
     Pre-gap length  0:00:02.00
     Peak level 93.0 %
     Extraction speed 2.0 X
     Track quality 100.0 %
     Test CRC 61C4DBA9
     Copy CRC 61C4DBA9
     Accurately ripped (confidence 19)  [56497112]
     Copy OK
Track  2
     Filename C:\Rips\02. Solidarity.wav
     Peak level 100.0 %
     Extraction speed 2.4 X
     Track quality 100.0 %
     Test CRC CAC93B2E
     Copy CRC CAC93B2E
     Accurately ripped (confidence 19)  [48CF6D21]
     Copy OK
Track  3
     Filename C:\Rips\03. Step Up.wav
     Peak level 98.8 %
     Extraction speed 2.5 X
     Track quality 99.9 %
     Test CRC 99DCC8AD
     Copy CRC 99DCC8AD
     Accurately ripped (confidence 19)  [AE3858C5]
     Copy OK
Track  4
     Filename C:\Rips\04. Juggernauts.wav
     Peak level 98.8 %
     Extraction speed 2.8 X
     Track quality 99.9 %
     Test CRC E6D8AF90
     Copy CRC E6D8AF90
     Accurately ripped (confidence 19)  [07E7186D]
     Copy OK
Track  5
     Filename C:\Rips\05. Wall.wav
     Peak level 98.8 %
     Extraction speed 3.3 X
     Track quality 100.0 %
     Test CRC FBC4B502
     Copy CRC FBC4B502
     Accurately ripped (confidence 19)  [B09DA297]
     Copy OK
Track  6
     Filename C:\Rips\06. Zzzonked.wav
     Peak level 98.8 %
     Extraction speed 3.4 X
     Track quality 100.0 %
     Test CRC FB5E0F6E
     Copy CRC FB5E0F6E
     Accurately ripped (confidence 19)  [395DBF50]
     Copy OK
Track  7
     Filename C:\Rips\07. Havoc A.wav
     Peak level 98.8 %
     Extraction speed 2.9 X
     Track quality 100.0 %
     Test CRC 21D18CD2
     Copy CRC 21D18CD2
     Accurately ripped (confidence 19)  [E74836CD]
     Copy OK
Track  8
     Filename C:\Rips\08. No Sleep Tonight.wav
     Peak level 98.8 %
     Extraction speed 3.3 X
     Track quality 99.9 %
     Test CRC F3C4C711
     Copy CRC F3C4C711
     Accurately ripped (confidence 19)  [FE1FC710]
     Copy OK
Track  9
     Filename C:\Rips\09. Gap In The Fence.wav
     Peak level 98.7 %
     Extraction speed 3.9 X
     Track quality 100.0 %
     Test CRC C1FADBAA
     Copy CRC C1FADBAA
     Accurately ripped (confidence 19)  [A1E6F808]
     Copy OK
Track 10
     Filename C:\Rips\10. Havoc B.wav
     Peak level 98.8 %
     Extraction speed 3.2 X
     Track quality 99.9 %
     Test CRC C620987B
     Copy CRC C620987B
     Accurately ripped (confidence 19)  [F18E8EF3]
     Copy OK
Track 11
     Filename C:\Rips\11. Antwerpen.wav
     Peak level 98.8 %
     Extraction speed 4.0 X
     Track quality 100.0 %
     Test CRC 61AF5776
     Copy CRC 61AF5776
     Accurately ripped (confidence 18)  [5F42C547]
     Copy OK
Track 12
     Filename C:\Rips\12. The Jester.wav
     Peak level 98.8 %
     Extraction speed 3.7 X
     Track quality 99.9 %
     Test CRC 4856C887
     Copy CRC 4856C887
     Accurately ripped (confidence 18)  [BD683B94]
     Copy OK
Track 13
     Filename C:\Rips\13. Halcyon.wav
     Peak level 49.2 %
     Extraction speed 2.7 X
     Track quality 100.0 %
     Test CRC 7B152722
     Copy CRC 7B152722
     Accurately ripped (confidence 18)  [4F517D5A]
     Copy OK
Track 14
     Filename C:\Rips\14. Hectic.wav
     Peak level 98.8 %
     Extraction speed 4.3 X
     Track quality 100.0 %
     Test CRC 1297E11A
     Copy CRC 1297E11A
     Accurately ripped (confidence 19)  [0E79992B]
     Copy OK
Track 15
     Filename C:\Rips\15. Fanfare For The Concious Man.wav
     Peak level 98.8 %
     Extraction speed 4.0 X
     Track quality 99.9 %
     Test CRC CA99D6C0
     Copy CRC CA99D6C0
     Accurately ripped (confidence 19)  [6914DCB7]
     Copy OK
All tracks accurately ripped
No errors occurred
End of status report
==== Log checksum 51C9E1B62BE48DC09EE5549E9D1FF31CBEF933D921349AC724FD24CD8339A410 ====

Содержание индексной карты (.cue)

REM GENRE "Trance Metal"
REM DATE 2009
REM DISCID C40BDA0F
REM COMMENT "ExactAudioCopy v1.0b1"
PERFORMER "Enter Shikari"
TITLE "Common Dreads"
FILE "01. Common Dreads.wav" WAVE
  TRACK 01 AUDIO
    TITLE "Common Dreads"
    PERFORMER "Enter Shikari"
    INDEX 01 00:00:00
FILE "02. Solidarity.wav" WAVE
  TRACK 02 AUDIO
    TITLE "Solidarity"
    PERFORMER "Enter Shikari"
    INDEX 01 00:00:00
FILE "03. Step Up.wav" WAVE
  TRACK 03 AUDIO
    TITLE "Step Up"
    PERFORMER "Enter Shikari"
    INDEX 01 00:00:00
FILE "04. Juggernauts.wav" WAVE
  TRACK 04 AUDIO
    TITLE "Juggernauts"
    PERFORMER "Enter Shikari"
    INDEX 01 00:00:00
FILE "05. Wall.wav" WAVE
  TRACK 05 AUDIO
    TITLE "Wall"
    PERFORMER "Enter Shikari"
    INDEX 01 00:00:00
FILE "06. Zzzonked.wav" WAVE
  TRACK 06 AUDIO
    TITLE "Zzzonked"
    PERFORMER "Enter Shikari"
    INDEX 01 00:00:00
FILE "07. Havoc A.wav" WAVE
  TRACK 07 AUDIO
    TITLE "Havoc A"
    PERFORMER "Enter Shikari"
    INDEX 01 00:00:00
FILE "08. No Sleep Tonight.wav" WAVE
  TRACK 08 AUDIO
    TITLE "No Sleep Tonight"
    PERFORMER "Enter Shikari"
    INDEX 01 00:00:00
FILE "09. Gap In The Fence.wav" WAVE
  TRACK 09 AUDIO
    TITLE "Gap In The Fence"
    PERFORMER "Enter Shikari"
    INDEX 01 00:00:00
FILE "10. Havoc B.wav" WAVE
  TRACK 10 AUDIO
    TITLE "Havoc B"
    PERFORMER "Enter Shikari"
    INDEX 01 00:00:00
FILE "11. Antwerpen.wav" WAVE
  TRACK 11 AUDIO
    TITLE "Antwerpen"
    PERFORMER "Enter Shikari"
    INDEX 01 00:00:00
FILE "12. The Jester.wav" WAVE
  TRACK 12 AUDIO
    TITLE "The Jester"
    PERFORMER "Enter Shikari"
    INDEX 01 00:00:00
FILE "13. Halcyon.wav" WAVE
  TRACK 13 AUDIO
    TITLE "Halcyon"
    PERFORMER "Enter Shikari"
    INDEX 01 00:00:00
FILE "14. Hectic.wav" WAVE
  TRACK 14 AUDIO
    TITLE "Hectic"
    PERFORMER "Enter Shikari"
    INDEX 01 00:00:00
FILE "15. Fanfare For The Concious Man.wav" WAVE
  TRACK 15 AUDIO
    TITLE "Fanfare For The Concious Man"
    PERFORMER "Enter Shikari"
    INDEX 01 00:00:00

2010 - Tribalism

01. Tribalism (5:05)
02. Thumper (3:44)
03. All Eyes On The Saint (5:51)
04. We Can Breathe In Space (4:04)
05. Insomnia (Live @ Brixton '07) (4:33)
06. Juggernauts (Nero Remix) (5:01)
07. No Sleep Tonight (The Qemists Remix) (5:59)
08. Wall (High Contrast Remix) (4:33)
09. No Sleep Tonight (Mistabishi Remix) (4:16)
10. Juggernauts (Blue Bear's True Tiger Remix) (4:55)
11. No Sleep Tonight (Rout Remix) (4:11)
12. No Sleep Tonight (LightsGoBlue Remix) (4:37)
13. Havoc A (Live '09) (1:48)
14. Labyrinth (Live '09) (3:25)
15. Hectic (Live '09) (4:01)
-

Лог создания рипа

Exact Audio Copy V0.99 prebeta 4 from 23. January 2008
EAC extraction logfile from 21. February 2010, 18:08
Enter Shikari / Tribalism
Used drive  : HL-DT-STDVD-RAM GH10L   Adapter: 1  ID: 0
Read mode               : Secure
Utilize accurate stream : Yes
Defeat audio cache      : Yes
Make use of C2 pointers : No
Read offset correction                      : 667
Overread into Lead-In and Lead-Out          : No
Fill up missing offset samples with silence : Yes
Delete leading and trailing silent blocks   : No
Null samples used in CRC calculations       : Yes
Used interface                              : Native Win32 interface for Win NT & 2000
Gap handling                                : Appended to previous track
Used output format              : User Defined Encoder
Selected bitrate                : 192 kBit/s
Quality                         : High
Add ID3 tag                     : No
Command line compressor         : C:\Program Files (x86)\Exact Audio Copy\Flac\flac.exe
Additional command line options : -V -8 -T "artist=%a" -T "title=%t" -T "album=%g" -T "date=%y" -T "tracknumber=%n" -T "genre=%m" %s
TOC of the extracted CD
     Track |   Start  |  Length  | Start sector | End sector
    ---------------------------------------------------------
        1  |  0:00.00 |  5:05.17 |         0    |    22891
        2  |  5:05.17 |  3:44.04 |     22892    |    39695
        3  |  8:49.21 |  5:51.22 |     39696    |    66042
        4  | 14:40.43 |  4:04.03 |     66043    |    84345
        5  | 18:44.46 |  4:33.11 |     84346    |   104831
        6  | 23:17.57 |  5:01.16 |    104832    |   127422
        7  | 28:18.73 |  5:58.61 |    127423    |   154333
        8  | 34:17.59 |  4:33.37 |    154334    |   174845
        9  | 38:51.21 |  4:16.32 |    174846    |   194077
       10  | 43:07.53 |  4:55.10 |    194078    |   216212
       11  | 48:02.63 |  4:11.32 |    216213    |   235069
       12  | 52:14.20 |  4:37.32 |    235070    |   255876
       13  | 56:51.52 |  1:47.68 |    255877    |   263969
       14  | 58:39.45 |  3:25.14 |    263970    |   279358
       15  | 62:04.59 |  4:01.06 |    279359    |   297439
Track  1
     Filename D:\FLAC\Enter Shikari\Tribalism\01 - Tribalism.wav
     Pre-gap length  0:00:02.00
     Peak level 100.0 %
     Track quality 100.0 %
     Test CRC 877A06DE
     Copy CRC 877A06DE
     Track not present in AccurateRip database
     Copy OK
Track  2
     Filename D:\FLAC\Enter Shikari\Tribalism\02 - Thumper.wav
     Pre-gap length  0:00:00.86
     Peak level 100.0 %
     Track quality 100.0 %
     Test CRC CAE7A756
     Copy CRC CAE7A756
     Track not present in AccurateRip database
     Copy OK
Track  3
     Filename D:\FLAC\Enter Shikari\Tribalism\03 - All Eyes On The Saint.wav
     Pre-gap length  0:00:01.02
     Peak level 98.8 %
     Track quality 99.9 %
     Test CRC 04FDDBE8
     Copy CRC 04FDDBE8
     Track not present in AccurateRip database
     Copy OK
Track  4
     Filename D:\FLAC\Enter Shikari\Tribalism\04 - We Can Breathe In Space.wav
     Pre-gap length  0:00:00.77
     Peak level 98.8 %
     Track quality 100.0 %
     Test CRC 68E007C1
     Copy CRC 68E007C1
     Track not present in AccurateRip database
     Copy OK
Track  5
     Filename D:\FLAC\Enter Shikari\Tribalism\05 - Insomnia [Live @ Brixton '07].wav
     Pre-gap length  0:00:00.66
     Peak level 100.0 %
     Track quality 100.0 %
     Test CRC DE7A4166
     Copy CRC DE7A4166
     Track not present in AccurateRip database
     Copy OK
Track  6
     Filename D:\FLAC\Enter Shikari\Tribalism\06 - Juggernauts [Nero Remix].wav
     Pre-gap length  0:00:01.18
     Peak level 92.9 %
     Track quality 100.0 %
     Test CRC 2B5568B9
     Copy CRC 2B5568B9
     Track not present in AccurateRip database
     Copy OK
Track  7
     Filename D:\FLAC\Enter Shikari\Tribalism\07 - No Sleep Tonight [The Qemists Remix].wav
     Pre-gap length  0:00:00.78
     Peak level 100.0 %
     Track quality 100.0 %
     Test CRC BA790109
     Copy CRC BA790109
     Track not present in AccurateRip database
     Copy OK
Track  8
     Filename D:\FLAC\Enter Shikari\Tribalism\08 - Wall [High Contrast Remix].wav
     Pre-gap length  0:00:00.86
     Peak level 89.1 %
     Track quality 100.0 %
     Test CRC 70CFF227
     Copy CRC 70CFF227
     Track not present in AccurateRip database
     Copy OK
Track  9
     Filename D:\FLAC\Enter Shikari\Tribalism\09 - No Sleep Tonight [Mistabishi Remix].wav
     Pre-gap length  0:00:00.62
     Peak level 100.0 %
     Track quality 100.0 %
     Test CRC D57C4615
     Copy CRC D57C4615
     Track not present in AccurateRip database
     Copy OK
Track 10
     Filename D:\FLAC\Enter Shikari\Tribalism\10 - Juggernauts [Blue Bear's True Tiger Remix].wav
     Pre-gap length  0:00:00.37
     Peak level 100.0 %
     Track quality 100.0 %
     Test CRC 93329344
     Copy CRC 93329344
     Track not present in AccurateRip database
     Copy OK
Track 11
     Filename D:\FLAC\Enter Shikari\Tribalism\11 - No Sleep Tonight [Rout Remix].wav
     Pre-gap length  0:00:00.62
     Peak level 100.0 %
     Track quality 100.0 %
     Test CRC 4D9F4B70
     Copy CRC 4D9F4B70
     Track not present in AccurateRip database
     Copy OK
Track 12
     Filename D:\FLAC\Enter Shikari\Tribalism\12 - No Sleep Tonight [LightsGoBlue Remix].wav
     Pre-gap length  0:00:00.52
     Peak level 100.0 %
     Track quality 100.0 %
     Test CRC 025DF3FB
     Copy CRC 025DF3FB
     Track not present in AccurateRip database
     Copy OK
Track 13
     Filename D:\FLAC\Enter Shikari\Tribalism\13 - Havoc A [Live '09].wav
     Pre-gap length  0:00:00.74
     Peak level 99.7 %
     Track quality 99.9 %
     Test CRC 21523056
     Copy CRC 21523056
     Track not present in AccurateRip database
     Copy OK
Track 14
     Filename D:\FLAC\Enter Shikari\Tribalism\14 - Labyrinth [Live '09].wav
     Pre-gap length  0:00:01.00
     Peak level 100.0 %
     Track quality 99.9 %
     Test CRC 3A83F62B
     Copy CRC 3A83F62B
     Track not present in AccurateRip database
     Copy OK
Track 15
     Filename D:\FLAC\Enter Shikari\Tribalism\15 - Hectic [Live '09].wav
     Pre-gap length  0:00:00.81
     Peak level 100.0 %
     Track quality 99.9 %
     Test CRC 8993DE71
     Copy CRC 8993DE71
     Track not present in AccurateRip database
     Copy OK
None of the tracks are present in the AccurateRip database
No errors occurred
End of status report

Содержание индексной карты (.cue)

REM GENRE Rock
REM DATE 2010
REM DISCID CD0F7D0F
REM COMMENT "ExactAudioCopy v0.99pb4"
FILE "01 - Tribalism.wav" WAVE
  TRACK 01 AUDIO
    INDEX 01 00:00:00
  TRACK 02 AUDIO
    INDEX 00 05:04:27
FILE "02 - Thumper.wav" WAVE
    INDEX 01 00:00:00
  TRACK 03 AUDIO
    INDEX 00 03:43:02
FILE "03 - All Eyes On The Saint.wav" WAVE
    INDEX 01 00:00:00
  TRACK 04 AUDIO
    INDEX 00 05:50:39
FILE "04 - We Can Breathe In Space.wav" WAVE
    INDEX 01 00:00:00
  TRACK 05 AUDIO
    INDEX 00 04:03:28
FILE "05 - Insomnia [Live @ Brixton '07].wav" WAVE
    INDEX 01 00:00:00
  TRACK 06 AUDIO
    INDEX 00 04:31:72
FILE "06 - Juggernauts [Nero Remix].wav" WAVE
    INDEX 01 00:00:00
  TRACK 07 AUDIO
    INDEX 00 05:00:32
FILE "07 - No Sleep Tonight [The Qemists Remix].wav" WAVE
    INDEX 01 00:00:00
  TRACK 08 AUDIO
    INDEX 00 05:57:71
FILE "08 - Wall [High Contrast Remix].wav" WAVE
    INDEX 01 00:00:00
  TRACK 09 AUDIO
    INDEX 00 04:32:65
FILE "09 - No Sleep Tonight [Mistabishi Remix].wav" WAVE
    INDEX 01 00:00:00
  TRACK 10 AUDIO
    INDEX 00 04:16:04
FILE "10 - Juggernauts [Blue Bear's True Tiger Remix].wav" WAVE
    INDEX 01 00:00:00
  TRACK 11 AUDIO
    INDEX 00 04:54:38
FILE "11 - No Sleep Tonight [Rout Remix].wav" WAVE
    INDEX 01 00:00:00
  TRACK 12 AUDIO
    INDEX 00 04:10:68
FILE "12 - No Sleep Tonight [LightsGoBlue Remix].wav" WAVE
    INDEX 01 00:00:00
  TRACK 13 AUDIO
    INDEX 00 04:36:51
FILE "13 - Havoc A [Live '09].wav" WAVE
    INDEX 01 00:00:00
  TRACK 14 AUDIO
    INDEX 00 01:46:68
FILE "14 - Labyrinth [Live '09].wav" WAVE
    INDEX 01 00:00:00
  TRACK 15 AUDIO
    INDEX 00 03:24:28
FILE "15 - Hectic [Live '09].wav" WAVE
    INDEX 01 00:00:00

2011 - Quelle Surprise (EP)

01. Quelle Surprise (Clean) (4:34)
02. Quelle Surprise (4:33)
03. Hectic (Live in Hatfield) [feat. Matty P] (4:05)
04. Destabilise (ROUT Remix) (5:14)
05. Destabilise (Creatures Of Love Remix) (3:54)
06. Destabilise (Johnny And The Snipers Version) (4:03)
-

Лог создания рипа

Exact Audio Copy V0.99 prebeta 5 from 4. May 2009
EAC extraction logfile from 1. August 2011, 13:08
Enter Shikari / Quelle Surprise
Used drive  : PIONEER DVD-RW  DVR-217   Adapter: 0  ID: 1
Read mode               : Secure
Utilize accurate stream : Yes
Defeat audio cache      : Yes
Make use of C2 pointers : No
Read offset correction                      : 96
Overread into Lead-In and Lead-Out          : No
Fill up missing offset samples with silence : Yes
Delete leading and trailing silent blocks   : No
Null samples used in CRC calculations       : Yes
Used interface                              : Native Win32 interface for Win NT & 2000
Gap handling                                : Appended to previous track
Used output format              : User Defined Encoder
Selected bitrate                : 320 kBit/s
Quality                         : High
Add ID3 tag                     : No
Command line compressor         : C:\Program Files (x86)\Exact Audio Copy\FLAC\FLAC.EXE
Additional command line options : -V -8 -T "artist=%a" -T "title=%t" -T "album=%g" -T "date=%y" -T "tracknumber=%n" -T "genre=%m" %s
TOC of the extracted CD
     Track |   Start  |  Length  | Start sector | End sector
    ---------------------------------------------------------
        1  |  0:00.00 |  4:33.61 |         0    |    20535
        2  |  4:33.61 |  4:33.37 |     20536    |    41047
        3  |  9:07.23 |  4:05.03 |     41048    |    59425
        4  | 13:12.26 |  5:14.22 |     59426    |    82997
        5  | 18:26.48 |  3:54.25 |     82998    |   100572
        6  | 22:20.73 |  4:03.19 |    100573    |   118816
Track  1
     Filename I:\FLAC\Enter Shikari - 2011 - Quelle Surprise\01 - Quelle Surprise (Clean).wav
     Pre-gap length  0:00:02.00
     Peak level 100.0 %
     Track quality 100.0 %
     Test CRC FE78C9F8
     Copy CRC FE78C9F8
     Track not present in AccurateRip database
     Copy OK
Track  2
     Filename I:\FLAC\Enter Shikari - 2011 - Quelle Surprise\02 - Quelle Surprise.wav
     Peak level 100.0 %
     Track quality 100.0 %
     Test CRC 8146B8DF
     Copy CRC 8146B8DF
     Track not present in AccurateRip database
     Copy OK
Track  3
     Filename I:\FLAC\Enter Shikari - 2011 - Quelle Surprise\03 - Hectic (feat. Matty P. Live at Hatfield).wav
     Peak level 100.0 %
     Track quality 99.9 %
     Test CRC B0F77A98
     Copy CRC B0F77A98
     Track not present in AccurateRip database
     Copy OK
Track  4
     Filename I:\FLAC\Enter Shikari - 2011 - Quelle Surprise\04 - Destabilise (ROUT Remix).wav
     Peak level 79.4 %
     Track quality 100.0 %
     Test CRC 8F93A8A9
     Copy CRC 8F93A8A9
     Track not present in AccurateRip database
     Copy OK
Track  5
     Filename I:\FLAC\Enter Shikari - 2011 - Quelle Surprise\05 - Destabilise (Creatures Of Love Remix).wav
     Peak level 100.0 %
     Track quality 100.0 %
     Test CRC 282D8AB4
     Copy CRC 282D8AB4
     Track not present in AccurateRip database
     Copy OK
Track  6
     Filename I:\FLAC\Enter Shikari - 2011 - Quelle Surprise\06 - Destabilise (Jonny & The Snipers Version).wav
     Peak level 99.7 %
     Track quality 100.0 %
     Test CRC 8710695A
     Copy CRC 8710695A
     Track not present in AccurateRip database
     Copy OK
None of the tracks are present in the AccurateRip database
No errors occurred
End of status report

Содержание индексной карты (.cue)

REM GENRE Metal
REM DATE 2011
REM DISCID 4A063006
REM COMMENT "ExactAudioCopy v0.99pb5"
FILE "01 - Quelle Surprise (Clean).wav" WAVE
  TRACK 01 AUDIO
  TITLE "Quelle Surprise"
    PERFORMER "Enter Shikari"
    INDEX 01 00:00:00
FILE "02 - Quelle Surprise.wav" WAVE
  TRACK 02 AUDIO
  TITLE "Quelle Surprise"
    PERFORMER "Enter Shikari"
    INDEX 01 00:00:00
FILE "03 - Hectic (feat. Matty P. Live at Hatfield).wav" WAVE
  TRACK 03 AUDIO
  TITLE "Quelle Surprise"
    PERFORMER "Enter Shikari"
    INDEX 01 00:00:00
FILE "04 - Destabilise (ROUT Remix).wav" WAVE
  TRACK 04 AUDIO
  TITLE "Quelle Surprise"
    PERFORMER "Enter Shikari"
    INDEX 01 00:00:00
FILE "05 - Destabilise (Creatures Of Love Remix).wav" WAVE
  TRACK 05 AUDIO
  TITLE "Quelle Surprise"
    PERFORMER "Enter Shikari"
    INDEX 01 00:00:00
FILE "06 - Destabilise (Jonny & The Snipers Version).wav" WAVE
  TRACK 06 AUDIO
  TITLE "Quelle Surprise"
    PERFORMER "Enter Shikari"
    INDEX 01 00:00:00

2012 - A Flash Flood Of Colour

01. System... (1:57)
02. ...Meltdown (3:24)
03. Sssnakepit (3:26)
04. Search Party (4:06)
05. Arguing With Thermometers (3:24)
06. Stalemate (4:18)
07. Gandhi Mate, Gandhi (4:26)
08. Warm Smiles Do Not Make You Welcome Here (4:38)
09. Pack Of Thieves (3:58)
10. Hello Tyrannosaurus, Meet Tyrannicide (3:46)
11. Constellations (5:01)
-

Лог создания рипа

X Lossless Decoder version 20111214 (138.1)
XLD extraction logfile from 2012-01-14 18:07:30 +0000
Enter Shikari / A Flash Flood of Colour
Used drive : HL-DT-ST DVDRW  GS23N (revision SB00)
Ripper mode             : XLD Secure Ripper
Disable audio cache     : OK for the drive with a cache less than 1375KiB
Make use of C2 pointers : NO
Read offset correction  : 667
Max retry count         : 100
Gap status              : Analyzed, Appended
TOC of the extracted CD
     Track |   Start  |  Length  | Start sector | End sector
    ---------------------------------------------------------
        1  | 00:00:00 | 01:57:26 |         0    |     8800
        2  | 01:57:26 | 03:23:39 |      8801    |    24064
        3  | 05:20:65 | 03:25:63 |     24065    |    39502
        4  | 08:46:53 | 04:06:17 |     39503    |    57969
        5  | 12:52:70 | 03:23:67 |     57970    |    73261
        6  | 16:16:62 | 04:18:06 |     73262    |    92617
        7  | 20:34:68 | 04:26:26 |     92618    |   112593
        8  | 25:01:19 | 04:38:18 |    112594    |   133461
        9  | 29:39:37 | 03:57:57 |    133462    |   151293
       10  | 33:37:19 | 03:46:30 |    151294    |   168273
       11  | 37:23:49 | 05:01:15 |    168274    |   190863
AccurateRip Summary
    Disc not found in AccurateRip DB.
All Tracks
    Album gain             : -9.47 dB
    Peak                   : 1.000000
    Statistics
        Read error                           : 0
        Jitter error (maybe fixed)           : 0
        Retry sector count                   : 0
        Damaged sector count                 : 0
Track 01
    Filename : /Users/onoflalks/Music/Encodes/Enter Shikari - A Flash Flood of Colour (2012) [FLAC]/01 System....flac
    Pre-gap length : 00:02:00
    Track gain             : -7.92 dB
    Peak                   : 0.997253
    CRC32 hash (test run)  : 30D1748B
    CRC32 hash             : 30D1748B
    CRC32 hash (skip zero) : B61E0DE8
    AccurateRip signature  : 26DC5FD8
        ->Track not present in AccurateRip database.
    Statistics
        Read error                           : 0
        Jitter error (maybe fixed)           : 0
        Retry sector count                   : 0
        Damaged sector count                 : 0
Track 02
    Filename : /Users/onoflalks/Music/Encodes/Enter Shikari - A Flash Flood of Colour (2012) [FLAC]/02 ...Meltdown.flac
    Track gain             : -9.91 dB
    Peak                   : 0.999969
    CRC32 hash (test run)  : E90DD843
    CRC32 hash             : E90DD843
    CRC32 hash (skip zero) : FAF15F8B
    AccurateRip signature  : 4BC37EC7
        ->Track not present in AccurateRip database.
    Statistics
        Read error                           : 0
        Jitter error (maybe fixed)           : 0
        Retry sector count                   : 0
        Damaged sector count                 : 0
Track 03
    Filename : /Users/onoflalks/Music/Encodes/Enter Shikari - A Flash Flood of Colour (2012) [FLAC]/03 Sssnakepit.flac
    Track gain             : -9.97 dB
    Peak                   : 1.000000
    CRC32 hash (test run)  : AA7685FF
    CRC32 hash             : AA7685FF
    CRC32 hash (skip zero) : 77E6D275
    AccurateRip signature  : 46C9F956
        ->Track not present in AccurateRip database.
    Statistics
        Read error                           : 0
        Jitter error (maybe fixed)           : 0
        Retry sector count                   : 0
        Damaged sector count                 : 0
Track 04
    Filename : /Users/onoflalks/Music/Encodes/Enter Shikari - A Flash Flood of Colour (2012) [FLAC]/04 Search Party.flac
    Track gain             : -8.88 dB
    Peak                   : 1.000000
    CRC32 hash (test run)  : 180509A5
    CRC32 hash             : 180509A5
    CRC32 hash (skip zero) : 789557B3
    AccurateRip signature  : CF9D26EE
        ->Track not present in AccurateRip database.
    Statistics
        Read error                           : 0
        Jitter error (maybe fixed)           : 0
        Retry sector count                   : 0
        Damaged sector count                 : 0
Track 05
    Filename : /Users/onoflalks/Music/Encodes/Enter Shikari - A Flash Flood of Colour (2012) [FLAC]/05 Arguing with Thermometers.flac
    Track gain             : -9.65 dB
    Peak                   : 1.000000
    CRC32 hash (test run)  : BB1A7A0C
    CRC32 hash             : BB1A7A0C
    CRC32 hash (skip zero) : DD5EEA00
    AccurateRip signature  : 5C8FAEBD
        ->Track not present in AccurateRip database.
    Statistics
        Read error                           : 0
        Jitter error (maybe fixed)           : 0
        Retry sector count                   : 0
        Damaged sector count                 : 0
Track 06
    Filename : /Users/onoflalks/Music/Encodes/Enter Shikari - A Flash Flood of Colour (2012) [FLAC]/06 Stalemate.flac
    Pre-gap length : 00:00:54
    Track gain             : -9.23 dB
    Peak                   : 0.997620
    CRC32 hash (test run)  : A1A2BC46
    CRC32 hash             : A1A2BC46
    CRC32 hash (skip zero) : D4835817
    AccurateRip signature  : 861BC6BB
        ->Track not present in AccurateRip database.
    Statistics
        Read error                           : 0
        Jitter error (maybe fixed)           : 0
        Retry sector count                   : 0
        Damaged sector count                 : 0
Track 07
    Filename : /Users/onoflalks/Music/Encodes/Enter Shikari - A Flash Flood of Colour (2012) [FLAC]/07 Ghandi Mate, Ghandi.flac
    Track gain             : -8.22 dB
    Peak                   : 1.000000
    CRC32 hash (test run)  : DD06DDFF
    CRC32 hash             : DD06DDFF
    CRC32 hash (skip zero) : 4CFE0352
    AccurateRip signature  : 6A295D00
        ->Track not present in AccurateRip database.
    Statistics
        Read error                           : 0
        Jitter error (maybe fixed)           : 0
        Retry sector count                   : 0
        Damaged sector count                 : 0
Track 08
    Filename : /Users/onoflalks/Music/Encodes/Enter Shikari - A Flash Flood of Colour (2012) [FLAC]/08 Warm Smiles Do Not Make You Welcome Here.flac
    Track gain             : -8.97 dB
    Peak                   : 1.000000
    CRC32 hash (test run)  : A5E54F0B
    CRC32 hash             : A5E54F0B
    CRC32 hash (skip zero) : 1F80B004
    AccurateRip signature  : E7969725
        ->Track not present in AccurateRip database.
    Statistics
        Read error                           : 0
        Jitter error (maybe fixed)           : 0
        Retry sector count                   : 0
        Damaged sector count                 : 0
Track 09
    Filename : /Users/onoflalks/Music/Encodes/Enter Shikari - A Flash Flood of Colour (2012) [FLAC]/09 Pack of Thieves.flac
    Pre-gap length : 00:00:71
    Track gain             : -9.96 dB
    Peak                   : 0.998535
    CRC32 hash (test run)  : BA41672A
    CRC32 hash             : BA41672A
    CRC32 hash (skip zero) : 5BBCB3D7
    AccurateRip signature  : B75E587B
        ->Track not present in AccurateRip database.
    Statistics
        Read error                           : 0
        Jitter error (maybe fixed)           : 0
        Retry sector count                   : 0
        Damaged sector count                 : 0
Track 10
    Filename : /Users/onoflalks/Music/Encodes/Enter Shikari - A Flash Flood of Colour (2012) [FLAC]/10 Hello Tyrannosaurus, Meet Tyrannicide.flac
    Track gain             : -8.55 dB
    Peak                   : 1.000000
    CRC32 hash (test run)  : 317EFE8A
    CRC32 hash             : 317EFE8A
    CRC32 hash (skip zero) : D90055C2
    AccurateRip signature  : A1C8E79C
        ->Track not present in AccurateRip database.
    Statistics
        Read error                           : 0
        Jitter error (maybe fixed)           : 0
        Retry sector count                   : 0
        Damaged sector count                 : 0
Track 11
    Filename : /Users/onoflalks/Music/Encodes/Enter Shikari - A Flash Flood of Colour (2012) [FLAC]/11 Constellations.flac
    Pre-gap length : 00:02:34
    Track gain             : -9.74 dB
    Peak                   : 0.997284
    CRC32 hash (test run)  : 8789B6DD
    CRC32 hash             : 8789B6DD
    CRC32 hash (skip zero) : 3B784B76
    AccurateRip signature  : 13E0F05E
        ->Track not present in AccurateRip database.
    Statistics
        Read error                           : 0
        Jitter error (maybe fixed)           : 0
        Retry sector count                   : 0
        Damaged sector count                 : 0
No errors occurred
End of status report

Содержание индексной карты (.cue)

TITLE "A Flash Flood of Colour"
PERFORMER "Enter Shikari"
REM DATE "2012"
REM DISCNUMBER 1
REM TOTALDISCS 1
REM DISCID 8C09F00B
REM REPLAYGAIN_ALBUM_GAIN -9.47 dB
REM REPLAYGAIN_ALBUM_PEAK 1.000000
FILE "01 - System....flac" WAVE
  TRACK 01 AUDIO
    TITLE "System..."
    PERFORMER "Enter Shiakri"
    ISRC GBNPA1100027
    REM REPLAYGAIN_TRACK_GAIN -7.92 dB
    REM REPLAYGAIN_TRACK_PEAK 0.997253
    INDEX 01 00:00:00
FILE "02 - ...Meltdown.flac" WAVE
  TRACK 02 AUDIO
    TITLE "...Meltdown"
    PERFORMER "Enter Shiakri"
    ISRC GBNPA1100028
    REM REPLAYGAIN_TRACK_GAIN -9.91 dB
    REM REPLAYGAIN_TRACK_PEAK 0.999969
    INDEX 01 00:00:00
FILE "03 - Sssnakepit.flac" WAVE
  TRACK 03 AUDIO
    TITLE "Sssnakepit"
    PERFORMER "Enter Shiakri"
    ISRC GBNPA1100025
    REM REPLAYGAIN_TRACK_GAIN -9.97 dB
    REM REPLAYGAIN_TRACK_PEAK 1.000000
    INDEX 01 00:00:00
FILE "04 - Search Party.flac" WAVE
  TRACK 04 AUDIO
    TITLE "Search Party"
    PERFORMER "Enter Shiakri"
    ISRC GBNPA1100029
    REM REPLAYGAIN_TRACK_GAIN -8.88 dB
    REM REPLAYGAIN_TRACK_PEAK 1.000000
    INDEX 01 00:00:00
FILE "05 - Arguing with Thermometers.flac" WAVE
  TRACK 05 AUDIO
    TITLE "Arguing with Thermometers"
    PERFORMER "Enter Shiakri"
    ISRC GBNPA1100030
    REM REPLAYGAIN_TRACK_GAIN -9.65 dB
    REM REPLAYGAIN_TRACK_PEAK 1.000000
    INDEX 01 00:00:00
  TRACK 06 AUDIO
    TITLE "Stalemate"
    PERFORMER "Enter Shiakri"
    ISRC GBNPA1100031
    REM REPLAYGAIN_TRACK_GAIN -9.23 dB
    REM REPLAYGAIN_TRACK_PEAK 0.997620
    INDEX 00 03:23:13
FILE "06 - Stalemate.flac" WAVE
    INDEX 01 00:00:00
FILE "07 - Ghandi Mate, Ghandi.flac" WAVE
  TRACK 07 AUDIO
    TITLE "Ghandi Mate, Ghandi"
    PERFORMER "Enter Shiakri"
    ISRC GBNPA1100032
    REM REPLAYGAIN_TRACK_GAIN -8.22 dB
    REM REPLAYGAIN_TRACK_PEAK 1.000000
    INDEX 01 00:00:00
FILE "08 - Warm Smiles Do Not Make You Welcome Here.flac" WAVE
  TRACK 08 AUDIO
    TITLE "Warm Smiles Do Not Make You Welcome Here"
    PERFORMER "Enter Shiakri"
    ISRC GBNPA1100033
    REM REPLAYGAIN_TRACK_GAIN -8.97 dB
    REM REPLAYGAIN_TRACK_PEAK 1.000000
    INDEX 01 00:00:00
  TRACK 09 AUDIO
    TITLE "Pack of Thieves"
    PERFORMER "Enter Shiakri"
    ISRC GBNPA1100034
    REM REPLAYGAIN_TRACK_GAIN -9.96 dB
    REM REPLAYGAIN_TRACK_PEAK 0.998535
    INDEX 00 04:37:22
FILE "09 - Pack of Thieves.flac" WAVE
    INDEX 01 00:00:00
FILE "10 - Hello Tyrannosaurus, Meet Tyrannicide.flac" WAVE
  TRACK 10 AUDIO
    TITLE "Hello Tyrannosaurus, Meet Tyrannicide"
    PERFORMER "Enter Shiakri"
    ISRC GBNPA1100035
    REM REPLAYGAIN_TRACK_GAIN -8.55 dB
    REM REPLAYGAIN_TRACK_PEAK 1.000000
    INDEX 01 00:00:00
  TRACK 11 AUDIO
    TITLE "Constellations"
    PERFORMER "Enter Shiakri"
    ISRC GBNPA1100036
    REM REPLAYGAIN_TRACK_GAIN -9.74 dB
    REM REPLAYGAIN_TRACK_PEAK 0.997284
    INDEX 00 03:43:71
FILE "11 - Constellations.flac" WAVE
    INDEX 01 00:00:00


Последний раз редактировалось: Three7 (2012-01-28 20:22), всего редактировалось 1 раз
[Профиль] [ЛС]

Rossamaxa

Пол: Не указан

Стаж: 9 года 5 месяца

Сообщений: 11

Создавать темы 28-Янв-2012 20:20 (спустя 2 минуты)

[Цитировать]

В mp3 бы )
[Профиль] [ЛС]

BarryPen

Пол: Не указан

Стаж: 15 дня

Сообщений: 2

Создавать темы 28-Апр-2021 00:12 (спустя 9 года 2 месяца)

[Цитировать]

ва53 41 1000а контактор
[Профиль] [ЛС]

Lifermancob

Пол: Не указан

Стаж: 13 дня

Сообщений: 2

Создавать темы 29-Апр-2021 12:06 (спустя 1 день 11 часа)

[Цитировать]

A lot of people after the legalization of gambling internet sources are interested in various poker helper programs. You may save the poker help program and knowing a lot of news about new variants of payment.
At aipoker.world clients have an opportunity to discover diverse bits of advice and help in poker. If you desire to save poker utility, it is feasible to do. You can save the program and using your poker app at different times. If you don’t know how to win at poker with individual strategy, you must search and read info on the web. Unfortunately, on Internet, there are a lot of websites, where people may play poker, but they are regulated and taxed by various regional programs. For example, the federal government in the USA is interesting to help to play poker citizenships.
One of the most apps on web-connected with ainsider. It is the best poker help program because people are thinking, that it is the future in online poker. This poker help program is working with individual popular poker rooms. You can use Visa or MasterCard, and other variants to deposit in your online wallet. Today a lot of people want to have membership subscriptions in national poker journals. You could also read various economic rules online poker game helper and media data about the online poker game.
Likewise, poker helper programs are very fast and they working in varied regions. You can find main info about people who are playing poker and have their incomes. Web poker gives users a chance to controlled different machines in the game and uses rooms like categories for men. All-time you could use new poker software and make analyze in diverse types. You can make your own decision in poker very fast and download poker helper, which will be interesting you.
Moreover, clients who knew something about ranges may moderate their direction by themself. Either, you should know, that some poker support programs have their drawbacks. Despite the reason that online poker helpers are powerful, it is need to have its separate server.
So, it is an additional value, which the management of the program need to pay. In additional, that is the reason why some of the helpers for playing poker are paid. On the page you should search tips for poker playing, they will support you and web poker tips are very helpful. It is possible to upload them with an Android or iOs tablet. At link rules and tips of poker you could find video poker tips also.
[Профиль] [ЛС]

BernardCic

Пол: Не указан

Стаж: 11 дня

Сообщений: 2

Создавать темы 02-Май-2021 00:34 (спустя 2 дня 12 часа)

[Цитировать]

Тень | 3 сезон | Королевская битва | Call of Duty WARZONE
https://www.youtube.com/watch?v=hMlNFxiuJV0
[Профиль] [ЛС]

Smsdig

Пол: Мужской

Стаж: 4 месяца 16 дня

Сообщений: 102

Откуда: Gwam

Создавать темы 03-Май-2021 07:28 (спустя 1 день 6 часа)

[Цитировать]

Обзоры и новости казино беттинга [url=https://ru7z.com/ ]Азартные игры и их новости по всему миру [/url]
https://ru7z.com Бонусы - лучшие казино - новые слоты которые сыпят миллионами! bonuses-the best casinos-new slots that are worth millions!
Casino betting reviews and news [url=https://ru7z.com/ ]Gambling around the world - what is it like.[/url]
[Профиль] [ЛС]

Smsdig

Пол: Мужской

Стаж: 4 месяца 16 дня

Сообщений: 102

Откуда: Gwam

Создавать темы 03-Май-2021 07:29 (спустя 28 секунды)

[Цитировать]

Обзоры и новости казино беттинга [url=https://ru7z.com/ ]Азартные игры и их новости по всему миру [/url]
https://ru7z.com Бонусы - лучшие казино - новые слоты которые сыпят миллионами! bonuses-the best casinos-new slots that are worth millions!
Casino betting reviews and news [url=https://ru7z.com/ ]Gambling around the world - what is it like.[/url]
[Профиль] [ЛС]

Smsdig

Пол: Мужской

Стаж: 4 месяца 16 дня

Сообщений: 102

Откуда: Gwam

Создавать темы 03-Май-2021 07:29 (спустя 39 секунды)

[Цитировать]

Обзоры и новости казино беттинга [url=https://ru7z.com/ ]Азартные игры и их новости по всему миру [/url]
https://ru7z.com Бонусы - лучшие казино - новые слоты которые сыпят миллионами! bonuses-the best casinos-new slots that are worth millions!
Casino betting reviews and news [url=https://ru7z.com/ ]Gambling around the world - what is it like.[/url]
[Профиль] [ЛС]

Smsdig

Пол: Мужской

Стаж: 4 месяца 16 дня

Сообщений: 102

Откуда: Gwam

Создавать темы 03-Май-2021 07:30 (спустя 32 секунды)

[Цитировать]

Обзоры и новости казино беттинга [url=https://ru7z.com/ ]Азартные игры и их новости по всему миру [/url]
https://ru7z.com Бонусы - лучшие казино - новые слоты которые сыпят миллионами! bonuses-the best casinos-new slots that are worth millions!
Casino betting reviews and news [url=https://ru7z.com/ ]Gambling around the world - what is it like.[/url]
[Профиль] [ЛС]

Smsdig

Пол: Мужской

Стаж: 4 месяца 16 дня

Сообщений: 102

Откуда: Gwam

Создавать темы 03-Май-2021 07:30 (спустя 38 секунды)

[Цитировать]

Обзоры и новости казино беттинга [url=https://ru7z.com/ ]Азартные игры и их новости по всему миру [/url]
https://ru7z.com Бонусы - лучшие казино - новые слоты которые сыпят миллионами! bonuses-the best casinos-new slots that are worth millions!
Casino betting reviews and news [url=https://ru7z.com/ ]Gambling around the world - what is it like.[/url]
[Профиль] [ЛС]

Smsdig

Пол: Мужской

Стаж: 4 месяца 16 дня

Сообщений: 102

Откуда: Gwam

Создавать темы 03-Май-2021 07:31 (спустя 28 секунды)

[Цитировать]

Обзоры и новости казино беттинга [url=https://ru7z.com/ ]Азартные игры и их новости по всему миру [/url]
https://ru7z.com Бонусы - лучшие казино - новые слоты которые сыпят миллионами! bonuses-the best casinos-new slots that are worth millions!
Casino betting reviews and news [url=https://ru7z.com/ ]Gambling around the world - what is it like.[/url]
[Профиль] [ЛС]

Smsdig

Пол: Мужской

Стаж: 4 месяца 16 дня

Сообщений: 102

Откуда: Gwam

Создавать темы 03-Май-2021 07:31 (спустя 31 секунда)

[Цитировать]

Обзоры и новости казино беттинга [url=https://ru7z.com/ ]Азартные игры и их новости по всему миру [/url]
https://ru7z.com Бонусы - лучшие казино - новые слоты которые сыпят миллионами! bonuses-the best casinos-new slots that are worth millions!
Casino betting reviews and news [url=https://ru7z.com/ ]Gambling around the world - what is it like.[/url]
[Профиль] [ЛС]

Smsdig

Пол: Мужской

Стаж: 4 месяца 16 дня

Сообщений: 102

Откуда: Gwam

Создавать темы 03-Май-2021 07:32 (спустя 30 секунды)

[Цитировать]

Обзоры и новости казино беттинга [url=https://ru7z.com/ ]Азартные игры и их новости по всему миру [/url]
https://ru7z.com Бонусы - лучшие казино - новые слоты которые сыпят миллионами! bonuses-the best casinos-new slots that are worth millions!
Casino betting reviews and news [url=https://ru7z.com/ ]Gambling around the world - what is it like.[/url]
[Профиль] [ЛС]

Smsdig

Пол: Мужской

Стаж: 4 месяца 16 дня

Сообщений: 102

Откуда: Gwam

Создавать темы 03-Май-2021 07:32 (спустя 32 секунды)

[Цитировать]

Обзоры и новости казино беттинга [url=https://ru7z.com/ ]Азартные игры и их новости по всему миру [/url]
https://ru7z.com Бонусы - лучшие казино - новые слоты которые сыпят миллионами! bonuses-the best casinos-new slots that are worth millions!
Casino betting reviews and news [url=https://ru7z.com/ ]Gambling around the world - what is it like.[/url]
[Профиль] [ЛС]

Smsdig

Пол: Мужской

Стаж: 4 месяца 16 дня

Сообщений: 102

Откуда: Gwam

Создавать темы 03-Май-2021 07:33 (спустя 31 секунда)

[Цитировать]

Обзоры и новости казино беттинга [url=https://ru7z.com/ ]Азартные игры и их новости по всему миру [/url]
https://ru7z.com Бонусы - лучшие казино - новые слоты которые сыпят миллионами! bonuses-the best casinos-new slots that are worth millions!
Casino betting reviews and news [url=https://ru7z.com/ ]Gambling around the world - what is it like.[/url]
[Профиль] [ЛС]

Smsdig

Пол: Мужской

Стаж: 4 месяца 16 дня

Сообщений: 102

Откуда: Gwam

Создавать темы 03-Май-2021 07:33 (спустя 25 секунды)

[Цитировать]

Обзоры и новости казино беттинга [url=https://ru7z.com/ ]Азартные игры и их новости по всему миру [/url]
https://ru7z.com Бонусы - лучшие казино - новые слоты которые сыпят миллионами! bonuses-the best casinos-new slots that are worth millions!
Casino betting reviews and news [url=https://ru7z.com/ ]Gambling around the world - what is it like.[/url]
[Профиль] [ЛС]

Smsdig

Пол: Мужской

Стаж: 4 месяца 16 дня

Сообщений: 102

Откуда: Gwam

Создавать темы 03-Май-2021 07:34 (спустя 30 секунды)

[Цитировать]

Обзоры и новости казино беттинга [url=https://ru7z.com/ ]Азартные игры и их новости по всему миру [/url]
https://ru7z.com Бонусы - лучшие казино - новые слоты которые сыпят миллионами! bonuses-the best casinos-new slots that are worth millions!
Casino betting reviews and news [url=https://ru7z.com/ ]Gambling around the world - what is it like.[/url]
[Профиль] [ЛС]

Smsdig

Пол: Мужской

Стаж: 4 месяца 16 дня

Сообщений: 102

Откуда: Gwam

Создавать темы 03-Май-2021 07:34 (спустя 34 секунды)

[Цитировать]

Обзоры и новости казино беттинга [url=https://ru7z.com/ ]Азартные игры и их новости по всему миру [/url]
https://ru7z.com Бонусы - лучшие казино - новые слоты которые сыпят миллионами! bonuses-the best casinos-new slots that are worth millions!
Casino betting reviews and news [url=https://ru7z.com/ ]Gambling around the world - what is it like.[/url]
[Профиль] [ЛС]

Smsdig

Пол: Мужской

Стаж: 4 месяца 16 дня

Сообщений: 102

Откуда: Gwam

Создавать темы 03-Май-2021 07:35 (спустя 27 секунды)

[Цитировать]

Обзоры и новости казино беттинга [url=https://ru7z.com/ ]Азартные игры и их новости по всему миру [/url]
https://ru7z.com Бонусы - лучшие казино - новые слоты которые сыпят миллионами! bonuses-the best casinos-new slots that are worth millions!
Casino betting reviews and news [url=https://ru7z.com/ ]Gambling around the world - what is it like.[/url]
[Профиль] [ЛС]

Smsdig

Пол: Мужской

Стаж: 4 месяца 16 дня

Сообщений: 102

Откуда: Gwam

Создавать темы 03-Май-2021 07:35 (спустя 35 секунды)

[Цитировать]

Обзоры и новости казино беттинга [url=https://ru7z.com/ ]Азартные игры и их новости по всему миру [/url]
https://ru7z.com Бонусы - лучшие казино - новые слоты которые сыпят миллионами! bonuses-the best casinos-new slots that are worth millions!
Casino betting reviews and news [url=https://ru7z.com/ ]Gambling around the world - what is it like.[/url]
[Профиль] [ЛС]

Smsdig

Пол: Мужской

Стаж: 4 месяца 16 дня

Сообщений: 102

Откуда: Gwam

Создавать темы 03-Май-2021 07:36 (спустя 30 секунды)

[Цитировать]

Обзоры и новости казино беттинга [url=https://ru7z.com/ ]Азартные игры и их новости по всему миру [/url]
https://ru7z.com Бонусы - лучшие казино - новые слоты которые сыпят миллионами! bonuses-the best casinos-new slots that are worth millions!
Casino betting reviews and news [url=https://ru7z.com/ ]Gambling around the world - what is it like.[/url]
[Профиль] [ЛС]

Smsdig

Пол: Мужской

Стаж: 4 месяца 16 дня

Сообщений: 102

Откуда: Gwam

Создавать темы 03-Май-2021 07:36 (спустя 31 секунда)

[Цитировать]

Обзоры и новости казино беттинга [url=https://ru7z.com/ ]Азартные игры и их новости по всему миру [/url]
https://ru7z.com Бонусы - лучшие казино - новые слоты которые сыпят миллионами! bonuses-the best casinos-new slots that are worth millions!
Casino betting reviews and news [url=https://ru7z.com/ ]Gambling around the world - what is it like.[/url]
[Профиль] [ЛС]

Smsdig

Пол: Мужской

Стаж: 4 месяца 16 дня

Сообщений: 102

Откуда: Gwam

Создавать темы 03-Май-2021 07:37 (спустя 32 секунды)

[Цитировать]

Обзоры и новости казино беттинга [url=https://ru7z.com/ ]Азартные игры и их новости по всему миру [/url]
https://ru7z.com Бонусы - лучшие казино - новые слоты которые сыпят миллионами! bonuses-the best casinos-new slots that are worth millions!
Casino betting reviews and news [url=https://ru7z.com/ ]Gambling around the world - what is it like.[/url]
[Профиль] [ЛС]

Smsdig

Пол: Мужской

Стаж: 4 месяца 16 дня

Сообщений: 102

Откуда: Gwam

Создавать темы 03-Май-2021 07:38 (спустя 33 секунды)

[Цитировать]

Обзоры и новости казино беттинга [url=https://ru7z.com/ ]Азартные игры и их новости по всему миру [/url]
https://ru7z.com Бонусы - лучшие казино - новые слоты которые сыпят миллионами! bonuses-the best casinos-new slots that are worth millions!
Casino betting reviews and news [url=https://ru7z.com/ ]Gambling around the world - what is it like.[/url]
[Профиль] [ЛС]

Smsdig

Пол: Мужской

Стаж: 4 месяца 16 дня

Сообщений: 102

Откуда: Gwam

Создавать темы 03-Май-2021 07:38 (спустя 30 секунды)

[Цитировать]

Обзоры и новости казино беттинга [url=https://ru7z.com/ ]Азартные игры и их новости по всему миру [/url]
https://ru7z.com Бонусы - лучшие казино - новые слоты которые сыпят миллионами! bonuses-the best casinos-new slots that are worth millions!
Casino betting reviews and news [url=https://ru7z.com/ ]Gambling around the world - what is it like.[/url]
[Профиль] [ЛС]

Smsdig

Пол: Мужской

Стаж: 4 месяца 16 дня

Сообщений: 102

Откуда: Gwam

Создавать темы 03-Май-2021 07:39 (спустя 34 секунды)

[Цитировать]

Обзоры и новости казино беттинга [url=https://ru7z.com/ ]Азартные игры и их новости по всему миру [/url]
https://ru7z.com Бонусы - лучшие казино - новые слоты которые сыпят миллионами! bonuses-the best casinos-new slots that are worth millions!
Casino betting reviews and news [url=https://ru7z.com/ ]Gambling around the world - what is it like.[/url]
[Профиль] [ЛС]

Smsdig

Пол: Мужской

Стаж: 4 месяца 16 дня

Сообщений: 102

Откуда: Gwam

Создавать темы 03-Май-2021 07:39 (спустя 36 секунды)

[Цитировать]

Обзоры и новости казино беттинга [url=https://ru7z.com/ ]Азартные игры и их новости по всему миру [/url]
https://ru7z.com Бонусы - лучшие казино - новые слоты которые сыпят миллионами! bonuses-the best casinos-new slots that are worth millions!
Casino betting reviews and news [url=https://ru7z.com/ ]Gambling around the world - what is it like.[/url]
[Профиль] [ЛС]

Smsdig

Пол: Мужской

Стаж: 4 месяца 16 дня

Сообщений: 102

Откуда: Gwam

Создавать темы 03-Май-2021 07:40 (спустя 23 секунды)

[Цитировать]

Обзоры и новости казино беттинга [url=https://ru7z.com/ ]Азартные игры и их новости по всему миру [/url]
https://ru7z.com Бонусы - лучшие казино - новые слоты которые сыпят миллионами! bonuses-the best casinos-new slots that are worth millions!
Casino betting reviews and news [url=https://ru7z.com/ ]Gambling around the world - what is it like.[/url]
[Профиль] [ЛС]

Smsdig

Пол: Мужской

Стаж: 4 месяца 16 дня

Сообщений: 102

Откуда: Gwam

Создавать темы 03-Май-2021 07:40 (спустя 27 секунды)

[Цитировать]

Обзоры и новости казино беттинга [url=https://ru7z.com/ ]Азартные игры и их новости по всему миру [/url]
https://ru7z.com Бонусы - лучшие казино - новые слоты которые сыпят миллионами! bonuses-the best casinos-new slots that are worth millions!
Casino betting reviews and news [url=https://ru7z.com/ ]Gambling around the world - what is it like.[/url]
[Профиль] [ЛС]

Smsdig

Пол: Мужской

Стаж: 4 месяца 16 дня

Сообщений: 102

Откуда: Gwam

Создавать темы 03-Май-2021 07:40 (спустя 26 секунды)

[Цитировать]

Обзоры и новости казино беттинга [url=https://ru7z.com/ ]Азартные игры и их новости по всему миру [/url]
https://ru7z.com Бонусы - лучшие казино - новые слоты которые сыпят миллионами! bonuses-the best casinos-new slots that are worth millions!
Casino betting reviews and news [url=https://ru7z.com/ ]Gambling around the world - what is it like.[/url]
[Профиль] [ЛС]

Smsdig

Пол: Мужской

Стаж: 4 месяца 16 дня

Сообщений: 102

Откуда: Gwam

Создавать темы 03-Май-2021 07:41 (спустя 37 секунды)

[Цитировать]

Обзоры и новости казино беттинга [url=https://ru7z.com/ ]Азартные игры и их новости по всему миру [/url]
https://ru7z.com Бонусы - лучшие казино - новые слоты которые сыпят миллионами! bonuses-the best casinos-new slots that are worth millions!
Casino betting reviews and news [url=https://ru7z.com/ ]Gambling around the world - what is it like.[/url]
[Профиль] [ЛС]

Smsdig

Пол: Мужской

Стаж: 4 месяца 16 дня

Сообщений: 102

Откуда: Gwam

Создавать темы 03-Май-2021 07:42 (спустя 31 секунда)

[Цитировать]

Обзоры и новости казино беттинга [url=https://ru7z.com/ ]Азартные игры и их новости по всему миру [/url]
https://ru7z.com Бонусы - лучшие казино - новые слоты которые сыпят миллионами! bonuses-the best casinos-new slots that are worth millions!
Casino betting reviews and news [url=https://ru7z.com/ ]Gambling around the world - what is it like.[/url]
[Профиль] [ЛС]

Smsdig

Пол: Мужской

Стаж: 4 месяца 16 дня

Сообщений: 102

Откуда: Gwam

Создавать темы 03-Май-2021 07:42 (спустя 33 секунды)

[Цитировать]

Обзоры и новости казино беттинга [url=https://ru7z.com/ ]Азартные игры и их новости по всему миру [/url]
https://ru7z.com Бонусы - лучшие казино - новые слоты которые сыпят миллионами! bonuses-the best casinos-new slots that are worth millions!
Casino betting reviews and news [url=https://ru7z.com/ ]Gambling around the world - what is it like.[/url]
[Профиль] [ЛС]

Smsdig

Пол: Мужской

Стаж: 4 месяца 16 дня

Сообщений: 102

Откуда: Gwam

Создавать темы 03-Май-2021 07:43 (спустя 25 секунды)

[Цитировать]

Обзоры и новости казино беттинга [url=https://ru7z.com/ ]Азартные игры и их новости по всему миру [/url]
https://ru7z.com Бонусы - лучшие казино - новые слоты которые сыпят миллионами! bonuses-the best casinos-new slots that are worth millions!
Casino betting reviews and news [url=https://ru7z.com/ ]Gambling around the world - what is it like.[/url]
[Профиль] [ЛС]

Smsdig

Пол: Мужской

Стаж: 4 месяца 16 дня

Сообщений: 102

Откуда: Gwam

Создавать темы 03-Май-2021 07:43 (спустя 38 секунды)

[Цитировать]

Обзоры и новости казино беттинга [url=https://ru7z.com/ ]Азартные игры и их новости по всему миру [/url]
https://ru7z.com Бонусы - лучшие казино - новые слоты которые сыпят миллионами! bonuses-the best casinos-new slots that are worth millions!
Casino betting reviews and news [url=https://ru7z.com/ ]Gambling around the world - what is it like.[/url]
[Профиль] [ЛС]

Smsdig

Пол: Мужской

Стаж: 4 месяца 16 дня

Сообщений: 102

Откуда: Gwam

Создавать темы 03-Май-2021 07:44 (спустя 28 секунды)

[Цитировать]

Обзоры и новости казино беттинга [url=https://ru7z.com/ ]Азартные игры и их новости по всему миру [/url]
https://ru7z.com Бонусы - лучшие казино - новые слоты которые сыпят миллионами! bonuses-the best casinos-new slots that are worth millions!
Casino betting reviews and news [url=https://ru7z.com/ ]Gambling around the world - what is it like.[/url]
[Профиль] [ЛС]

Smsdig

Пол: Мужской

Стаж: 4 месяца 16 дня

Сообщений: 102

Откуда: Gwam

Создавать темы 03-Май-2021 07:44 (спустя 25 секунды)

[Цитировать]

Обзоры и новости казино беттинга [url=https://ru7z.com/ ]Азартные игры и их новости по всему миру [/url]
https://ru7z.com Бонусы - лучшие казино - новые слоты которые сыпят миллионами! bonuses-the best casinos-new slots that are worth millions!
Casino betting reviews and news [url=https://ru7z.com/ ]Gambling around the world - what is it like.[/url]
[Профиль] [ЛС]

Smsdig

Пол: Мужской

Стаж: 4 месяца 16 дня

Сообщений: 102

Откуда: Gwam

Создавать темы 03-Май-2021 07:45 (спустя 26 секунды)

[Цитировать]

Обзоры и новости казино беттинга [url=https://ru7z.com/ ]Азартные игры и их новости по всему миру [/url]
https://ru7z.com Бонусы - лучшие казино - новые слоты которые сыпят миллионами! bonuses-the best casinos-new slots that are worth millions!
Casino betting reviews and news [url=https://ru7z.com/ ]Gambling around the world - what is it like.[/url]
[Профиль] [ЛС]

Smsdig

Пол: Мужской

Стаж: 4 месяца 16 дня

Сообщений: 102

Откуда: Gwam

Создавать темы 03-Май-2021 07:45 (спустя 27 секунды)

[Цитировать]

Обзоры и новости казино беттинга [url=https://ru7z.com/ ]Азартные игры и их новости по всему миру [/url]
https://ru7z.com Бонусы - лучшие казино - новые слоты которые сыпят миллионами! bonuses-the best casinos-new slots that are worth millions!
Casino betting reviews and news [url=https://ru7z.com/ ]Gambling around the world - what is it like.[/url]
[Профиль] [ЛС]

Smsdig

Пол: Мужской

Стаж: 4 месяца 16 дня

Сообщений: 102

Откуда: Gwam

Создавать темы 03-Май-2021 07:45 (спустя 30 секунды)

[Цитировать]

Обзоры и новости казино беттинга [url=https://ru7z.com/ ]Азартные игры и их новости по всему миру [/url]
https://ru7z.com Бонусы - лучшие казино - новые слоты которые сыпят миллионами! bonuses-the best casinos-new slots that are worth millions!
Casino betting reviews and news [url=https://ru7z.com/ ]Gambling around the world - what is it like.[/url]
[Профиль] [ЛС]
Показать сообщения:    
Ответить на тему

Текущее время: 13-Май 06:44

Часовой пояс: UTC + 3



Вы не можете начинать темы
Вы не можете отвечать на сообщения
Вы не можете редактировать свои сообщения
Вы не можете удалять свои сообщения
Вы не можете голосовать в опросах
Вы не можете прикреплять файлы к сообщениям
Вы не можете скачивать файлы